<?xml version="1.0" standalone="no"?>
<!DOCTYPE svg PUBLIC "-//W3C//DTD SVG 1.1//EN" "http://www.w3.org/Graphics/SVG/1.1/DTD/svg11.dtd" >
<svg xmlns="http://www.w3.org/2000/svg" xmlns:xlink="http://www.w3.org/1999/xlink" version="1.1">
<metadata>
Created by FontForge 20201107 at Thu Nov 22 12:18:27 2018
 By Unknown
Copyright (c) 2018 by Hustle Supply Co.. All rights reserved.
</metadata>
<defs>
<font id="Purveyor-Regular" horiz-adv-x="873" >
  <font-face 
    font-family="Purveyor"
    font-weight="400"
    font-stretch="normal"
    units-per-em="1000"
    panose-1="0 0 5 0 0 0 0 0 0 0"
    ascent="800"
    descent="-200"
    x-height="878"
    cap-height="879"
    bbox="-635 -400 1441 1300"
    underline-thickness="50"
    underline-position="-100"
    unicode-range="U+0020-E000"
  />
<missing-glyph horiz-adv-x="850" 
d="M158 -400v1700h539v-1700h-539zM286 1130h110v-63h-112v-56h282v56h-112v63h112v56h-280v-56zM284 790h282v58h-112v119h-170v-177zM340 848v61h56v-61h-56zM284 688h112v-63h-112v-56h170v119h112v56h-282v-56zM510 530h-226v-58h282v170h-56v-112zM396 340h58v39h56
v-80h-170v136h-56v-192h282v192h-170v-95zM284 -52h282v193h-282v-193zM340 5v80h170v-80h-170zM284 -147h119l-119 -80v-56h282v56h-173l119 80h54v56h-282v-56z" />
    <glyph glyph-name=".notdef" horiz-adv-x="850" 
d="M158 -400v1700h539v-1700h-539zM286 1130h110v-63h-112v-56h282v56h-112v63h112v56h-280v-56zM284 790h282v58h-112v119h-170v-177zM340 848v61h56v-61h-56zM284 688h112v-63h-112v-56h170v119h112v56h-282v-56zM510 530h-226v-58h282v170h-56v-112zM396 340h58v39h56
v-80h-170v136h-56v-192h282v192h-170v-95zM284 -52h282v193h-282v-193zM340 5v80h170v-80h-170zM284 -147h119l-119 -80v-56h282v56h-173l119 80h54v56h-282v-56z" />
    <glyph glyph-name="space" unicode=" " horiz-adv-x="400" 
 />
    <glyph glyph-name="A" unicode="A" 
d="M549 881l314 -881h-181l-57 161h-376l-58 -161h-181l314 881h225zM437 688l-127 -356h254z" />
    <glyph glyph-name="Aacute" unicode="&#xc1;" 
d="M546 1279l133 -130l-240 -207l-96 95zM549 881l314 -881h-181l-57 161h-376l-58 -161h-181l314 881h225zM437 688l-127 -356h254z" />
    <glyph glyph-name="Abreve" unicode="&#x102;" 
d="M299 971q-60 35 -95 95t-35 131h171q0 -37 26.5 -63.5t63.5 -26.5q38 0 64 26.5t26 63.5h171q0 -71 -35 -131t-95 -95t-131 -35t-131 35zM549 881l314 -881h-181l-57 161h-376l-58 -161h-181l314 881h225zM437 688l-127 -356h254z" />
    <glyph glyph-name="Acircumflex" unicode="&#xc2;" 
d="M383 1223h109l189 -157l-110 -131l-133 111l-134 -111l-109 131zM549 881l314 -881h-181l-57 161h-376l-58 -161h-181l314 881h225zM437 688l-127 -356h254z" />
    <glyph glyph-name="Adieresis" unicode="&#xc4;" 
d="M221 978q-32 32 -32 78q0 45 32 77t77 32t77 -32t32 -77q0 -46 -32 -78t-77 -32t-77 32zM482 978q-32 32 -32 78q0 45 32 77t77 32t77 -32t32 -77q0 -46 -32 -78t-77 -32t-77 32zM549 881l314 -881h-181l-57 161h-376l-58 -161h-181l314 881h225zM437 688l-127 -356h254z
" />
    <glyph glyph-name="Agrave" unicode="&#xc0;" 
d="M393 1287l204 -242l-96 -95l-240 207zM549 881l314 -881h-181l-57 161h-376l-58 -161h-181l314 881h225zM437 688l-127 -356h254z" />
    <glyph glyph-name="Amacron" unicode="&#x100;" 
d="M611 1073v-118h-341v118h341zM549 881l314 -881h-181l-57 161h-376l-58 -161h-181l314 881h225zM437 688l-127 -356h254z" />
    <glyph glyph-name="Aogonek" unicode="&#x104;" 
d="M885.5 -291q-42.5 -13 -85.5 -13q-66 0 -108 34t-42 98q0 55 32.5 100.5t71.5 71.5h-72l-57 161h-376l-58 -161h-181l314 881h225l314 -881q-40 -32 -61 -63.5t-21 -64.5q0 -30 20 -45.5t46 -15.5q21 0 38.5 5.5t27.5 13.5l41 -87q-26 -21 -68.5 -34zM437 688l-127 -356
h254z" />
    <glyph glyph-name="Aring" unicode="&#xc5;" 
d="M358.5 967q-37.5 22 -59.5 60t-22 83q0 44 22 82t59.5 60t82.5 22q44 0 82 -22t60 -60t22 -82q0 -45 -22 -83t-60 -60t-82 -22q-45 0 -82.5 22zM473.5 1077.5q13.5 13.5 13.5 32.5t-13.5 32.5t-32.5 13.5t-32.5 -13.5t-13.5 -32.5t13.5 -32.5t32.5 -13.5t32.5 13.5z
M549 881l314 -881h-181l-57 161h-376l-58 -161h-181l314 881h225zM437 688l-127 -356h254z" />
    <glyph glyph-name="Atilde" unicode="&#xc3;" 
d="M433 946.5q-40 18.5 -74 53.5q-21 23 -35 18q-7 -2 -14 -14t-10 -31l-170 24q10 65 46 115q38 50 97 69q27 9 56 9q42 0 82 -18.5t73 -54.5q9 -10 18.5 -14.5t15.5 -2.5q7 2 14 14t10 32l169 -23q-9 -69 -45 -115q-39 -53 -96 -71q-27 -9 -56 -9q-41 0 -81 18.5zM549 881
l314 -881h-181l-57 161h-376l-58 -161h-181l314 881h225zM437 688l-127 -356h254z" />
    <glyph glyph-name="AE" unicode="&#xc6;" horiz-adv-x="1384" 
d="M1344 880v-171h-506v-184h414v-170h-414v-184h506v-171h-676v194h-310l-145 -194h-213l657 880h687zM668 609l-183 -244h183v244z" />
    <glyph glyph-name="B" unicode="B" horiz-adv-x="782" 
d="M434 879q70 0 129.5 -35t94.5 -94t35 -129q0 -87 -52 -156q51 -35 81 -90.5t30 -119.5q0 -69 -34.5 -127.5t-93 -93t-127.5 -34.5h-447v879h384zM508 572q15 22 15 49q0 36 -26 62t-63 26h-213v-277l247 107q25 11 40 33zM557 195q25 25 25 60t-25 59.5t-60 24.5h-61
l-215 -93v-76h276q35 0 60 25z" />
    <glyph glyph-name="C" unicode="C" horiz-adv-x="867" 
d="M256 48q-104 61 -165 165t-61 227t61 227t165 165t227 61q107 0 203.5 -49t160.5 -135l-137 -101q-41 54 -100.5 84t-126.5 30q-77 0 -141.5 -38t-102.5 -103t-38 -141q0 -77 38 -142t102.5 -103t141.5 -38q58 0 111 23t94 66l125 -117q-64 -68 -150.5 -105t-179.5 -37
q-123 0 -227 61z" />
    <glyph glyph-name="Cacute" unicode="&#x106;" horiz-adv-x="867" 
d="M546 1279l133 -130l-240 -207l-96 95zM256 48q-104 61 -165 165t-61 227t61 227t165 165t227 61q107 0 203.5 -49t160.5 -135l-137 -101q-41 54 -100.5 84t-126.5 30q-77 0 -141.5 -38t-102.5 -103t-38 -141q0 -77 38 -142t102.5 -103t141.5 -38q58 0 111 23t94 66
l125 -117q-64 -68 -150.5 -105t-179.5 -37q-123 0 -227 61z" />
    <glyph glyph-name="Ccaron" unicode="&#x10c;" horiz-adv-x="867" 
d="M335 1238l133 -111l134 111l109 -131l-188 -157h-109l-189 157zM256 48q-104 61 -165 165t-61 227t61 227t165 165t227 61q107 0 203.5 -49t160.5 -135l-137 -101q-41 54 -100.5 84t-126.5 30q-77 0 -141.5 -38t-102.5 -103t-38 -141q0 -77 38 -142t102.5 -103t141.5 -38
q58 0 111 23t94 66l125 -117q-64 -68 -150.5 -105t-179.5 -37q-123 0 -227 61z" />
    <glyph glyph-name="Ccedilla" unicode="&#xc7;" horiz-adv-x="867" 
d="M594 180q53 23 94 66l125 -117q-57 -60 -131.5 -96t-155.5 -44l-31 -73q51 -12 76 -35.5t25 -63.5q0 -128 -262 -137l-14 78q77 4 106.5 17t29.5 41q0 22 -22 35.5t-79 20.5l57 121q-107 17 -194.5 80.5t-137.5 159.5t-50 207q0 123 61 227t165 165t227 61
q107 0 203.5 -49t160.5 -135l-137 -101q-41 54 -100.5 84t-126.5 30q-77 0 -141.5 -38t-102.5 -103t-38 -141q0 -77 38 -142t102.5 -103t141.5 -38q58 0 111 23z" />
    <glyph glyph-name="Cdotaccent" unicode="&#x10a;" horiz-adv-x="867" 
d="M413 978q-32 32 -32 78q0 45 32 77t77 32t77 -32t32 -77q0 -46 -32 -78t-77 -32t-77 32zM256 48q-104 61 -165 165t-61 227t61 227t165 165t227 61q107 0 203.5 -49t160.5 -135l-137 -101q-41 54 -100.5 84t-126.5 30q-77 0 -141.5 -38t-102.5 -103t-38 -141
q0 -77 38 -142t102.5 -103t141.5 -38q58 0 111 23t94 66l125 -117q-64 -68 -150.5 -105t-179.5 -37q-123 0 -227 61z" />
    <glyph glyph-name="D" unicode="D" horiz-adv-x="840" 
d="M370 879q119 0 220.5 -59.5t160.5 -160.5t59 -221t-59 -221t-160 -160t-221 -59h-320v881h320zM505 204.5q62 36.5 98.5 98.5t36.5 135t-36.5 135t-98.5 98.5t-135 36.5h-149v-540h149q73 0 135 36.5z" />
    <glyph glyph-name="Eth" unicode="&#xd0;" horiz-adv-x="840" 
d="M590.5 819.5q101.5 -59.5 160.5 -160.5t59 -221t-59 -221t-160 -160t-221 -59h-320v356h-47v171h47v354h320q119 0 220.5 -59.5zM505 204.5q62 36.5 98.5 98.5t36.5 135t-36.5 135t-98.5 98.5t-135 36.5h-149v-183h309v-171h-309v-186h149q73 0 135 36.5z" />
    <glyph glyph-name="Dcaron" unicode="&#x10e;" horiz-adv-x="840" 
d="M260 1238l133 -111l134 111l109 -131l-188 -157h-109l-189 157zM370 879q119 0 220.5 -59.5t160.5 -160.5t59 -221t-59 -221t-160 -160t-221 -59h-320v881h320zM505 204.5q62 36.5 98.5 98.5t36.5 135t-36.5 135t-98.5 98.5t-135 36.5h-149v-540h149q73 0 135 36.5z" />
    <glyph glyph-name="Dcroat" unicode="&#x110;" horiz-adv-x="840" 
d="M590.5 819.5q101.5 -59.5 160.5 -160.5t59 -221t-59 -221t-160 -160t-221 -59h-320v356h-47v171h47v354h320q119 0 220.5 -59.5zM505 204.5q62 36.5 98.5 98.5t36.5 135t-36.5 135t-98.5 98.5t-135 36.5h-149v-183h309v-171h-309v-186h149q73 0 135 36.5z" />
    <glyph glyph-name="E" unicode="E" horiz-adv-x="766" 
d="M726 879v-170h-505v-184h413v-171h-413v-184h505v-170h-676v879h676z" />
    <glyph glyph-name="Eacute" unicode="&#xc9;" horiz-adv-x="766" 
d="M496 1279l133 -130l-240 -207l-96 95zM726 879v-170h-505v-184h413v-171h-413v-184h505v-170h-676v879h676z" />
    <glyph glyph-name="Ecaron" unicode="&#x11a;" horiz-adv-x="766" 
d="M285 1238l133 -111l134 111l109 -131l-188 -157h-109l-189 157zM726 879v-170h-505v-184h413v-171h-413v-184h505v-170h-676v879h676z" />
    <glyph glyph-name="Ecircumflex" unicode="&#xca;" horiz-adv-x="766" 
d="M359 1223h109l189 -157l-110 -131l-133 111l-134 -111l-109 131zM726 879v-170h-505v-184h413v-171h-413v-184h505v-170h-676v879h676z" />
    <glyph glyph-name="Edieresis" unicode="&#xcb;" horiz-adv-x="766" 
d="M211 978q-32 32 -32 78q0 45 32 77t77 32t77 -32t32 -77q0 -46 -32 -78t-77 -32t-77 32zM472 978q-32 32 -32 78q0 45 32 77t77 32t77 -32t32 -77q0 -46 -32 -78t-77 -32t-77 32zM726 879v-170h-505v-184h413v-171h-413v-184h505v-170h-676v879h676z" />
    <glyph glyph-name="Edotaccent" unicode="&#x116;" horiz-adv-x="766" 
d="M327 978q-32 32 -32 78q0 45 32 77t77 32t77 -32t32 -77q0 -46 -32 -78t-77 -32t-77 32zM726 879v-170h-505v-184h413v-171h-413v-184h505v-170h-676v879h676z" />
    <glyph glyph-name="Egrave" unicode="&#xc8;" horiz-adv-x="766" 
d="M354 1287l204 -242l-96 -95l-240 207zM726 879v-170h-505v-184h413v-171h-413v-184h505v-170h-676v879h676z" />
    <glyph glyph-name="Emacron" unicode="&#x112;" horiz-adv-x="766" 
d="M580 1073v-118h-341v118h341zM726 879v-170h-505v-184h413v-171h-413v-184h505v-170h-676v879h676z" />
    <glyph glyph-name="Eogonek" unicode="&#x118;" horiz-adv-x="766" 
d="M748.5 -291q-42.5 -13 -85.5 -13q-66 0 -108 34t-42 98q0 55 32.5 100.5t71.5 71.5h-567v879h676v-170h-505v-184h413v-171h-413v-184h505v-170q-40 -32 -61 -63.5t-21 -64.5q0 -30 20 -45.5t46 -15.5q21 0 38.5 5.5t27.5 13.5l41 -87q-26 -21 -68.5 -34z" />
    <glyph glyph-name="F" unicode="F" horiz-adv-x="766" 
d="M726 879v-170h-505v-184h413v-171h-413v-354h-171v879h676z" />
    <glyph glyph-name="G" unicode="G" horiz-adv-x="854" 
d="M256 48q-104 61 -165 165t-61 227t61 227t165 165t227 61q73 0 141.5 -22.5t127.5 -66.5l-101 -137q-75 55 -168 55q-77 0 -141.5 -38t-102.5 -103t-38 -141q0 -77 38 -142t102.5 -103t141.5 -38q82 0 150 44v271h171v-355l-31 -25q-61 -51 -135.5 -78t-154.5 -27
q-123 0 -227 61z" />
    <glyph glyph-name="Gbreve" unicode="&#x11e;" horiz-adv-x="854" 
d="M347 971q-60 35 -95 95t-35 131h171q0 -37 26.5 -63.5t63.5 -26.5q38 0 64 26.5t26 63.5h171q0 -71 -35 -131t-95 -95t-131 -35t-131 35zM256 48q-104 61 -165 165t-61 227t61 227t165 165t227 61q73 0 141.5 -22.5t127.5 -66.5l-101 -137q-75 55 -168 55
q-77 0 -141.5 -38t-102.5 -103t-38 -141q0 -77 38 -142t102.5 -103t141.5 -38q82 0 150 44v271h171v-355l-31 -25q-61 -51 -135.5 -78t-154.5 -27q-123 0 -227 61z" />
    <glyph glyph-name="uni0122" unicode="&#x122;" horiz-adv-x="854" 
d="M256 48q-104 61 -165 165t-61 227t61 227t165 165t227 61q73 0 141.5 -22.5t127.5 -66.5l-101 -137q-75 55 -168 55q-77 0 -141.5 -38t-102.5 -103t-38 -141q0 -77 38 -142t102.5 -103t141.5 -38q82 0 150 44v271h171v-355l-31 -25q-61 -51 -135.5 -78t-154.5 -27
q-123 0 -227 61zM485 -32l133 -130l-240 -207l-96 95z" />
    <glyph glyph-name="Gdotaccent" unicode="&#x120;" horiz-adv-x="854" 
d="M396 978q-32 32 -32 78q0 45 32 77t77 32t77 -32t32 -77q0 -46 -32 -78t-77 -32t-77 32zM256 48q-104 61 -165 165t-61 227t61 227t165 165t227 61q73 0 141.5 -22.5t127.5 -66.5l-101 -137q-75 55 -168 55q-77 0 -141.5 -38t-102.5 -103t-38 -141q0 -77 38 -142
t102.5 -103t141.5 -38q82 0 150 44v271h171v-355l-31 -25q-61 -51 -135.5 -78t-154.5 -27q-123 0 -227 61z" />
    <glyph glyph-name="H" unicode="H" horiz-adv-x="774" 
d="M221 880v-354h332v354h171v-880h-171v356h-332v-356h-171v880h171z" />
    <glyph glyph-name="Hbar" unicode="&#x126;" horiz-adv-x="774" 
d="M724 0h-171v356h-332v-356h-171v880h171v-139h332v139h171v-880zM553 570h-332v-44h332v44z" />
    <glyph glyph-name="I" unicode="I" horiz-adv-x="311" 
d="M241 879v-879h-171v879h171z" />
    <glyph glyph-name="Iacute" unicode="&#xcd;" horiz-adv-x="311" 
d="M244 1279l133 -130l-240 -207l-96 95zM241 879v-879h-171v879h171z" />
    <glyph glyph-name="Icircumflex" unicode="&#xce;" horiz-adv-x="311" 
d="M99 1223h109l189 -157l-110 -131l-133 111l-134 -111l-109 131zM241 879v-879h-171v879h171z" />
    <glyph glyph-name="Idieresis" unicode="&#xcf;" horiz-adv-x="311" 
d="M-53 978q-32 32 -32 78q0 45 32 77t77 32t77 -32t32 -77q0 -46 -32 -78t-77 -32t-77 32zM208 978q-32 32 -32 78q0 45 32 77t77 32t77 -32t32 -77q0 -46 -32 -78t-77 -32t-77 32zM241 879v-879h-171v879h171z" />
    <glyph glyph-name="Idotaccent" unicode="&#x130;" horiz-adv-x="311" 
d="M81 978q-32 32 -32 78q0 45 32 77t77 32t77 -32t32 -77q0 -46 -32 -78t-77 -32t-77 32zM241 879v-879h-171v879h171z" />
    <glyph glyph-name="Igrave" unicode="&#xcc;" horiz-adv-x="311" 
d="M102 1287l204 -242l-96 -95l-240 207zM241 879v-879h-171v879h171z" />
    <glyph glyph-name="Imacron" unicode="&#x12a;" horiz-adv-x="311" 
d="M329 1073v-118h-341v118h341zM241 879v-879h-171v879h171z" />
    <glyph glyph-name="Iogonek" unicode="&#x12e;" horiz-adv-x="311" 
d="M264.5 -291q-42.5 -13 -85.5 -13q-66 0 -108 34t-42 98q0 55 32.5 100.5t71.5 71.5h-63v879h171v-879h1q-40 -32 -61 -63.5t-21 -64.5q0 -30 20 -45.5t46 -15.5q21 0 38.5 5.5t27.5 13.5l41 -87q-26 -21 -68.5 -34z" />
    <glyph glyph-name="J" unicode="J" horiz-adv-x="756" 
d="M198.5 32.5q-77.5 45.5 -123 123t-45.5 169.5h171q0 -46 22.5 -84.5t61 -61t83.5 -22.5t83.5 22.5t61 61t22.5 84.5v554h171v-554q0 -92 -45.5 -169.5t-123 -123t-169.5 -45.5t-169.5 45.5z" />
    <glyph glyph-name="K" unicode="K" horiz-adv-x="783" 
d="M221 255v-254h-171v878h171v-362l310 362h224l-286 -334l314 -547h-197l-235 410z" />
    <glyph glyph-name="uni0136" unicode="&#x136;" horiz-adv-x="783" 
d="M221 255v-254h-171v878h171v-362l310 362h224l-286 -334l314 -547h-197l-235 410zM402 -7l133 -130l-240 -207l-96 95z" />
    <glyph glyph-name="L" unicode="L" horiz-adv-x="756" 
d="M221 879v-708h505v-171h-676v879h171z" />
    <glyph glyph-name="Lacute" unicode="&#x139;" horiz-adv-x="756" 
d="M494 1279l133 -130l-240 -207l-96 95zM221 879v-708h505v-171h-676v879h171z" />
    <glyph glyph-name="Lcaron" unicode="&#x13d;" horiz-adv-x="756" 
d="M269 1238l133 -111l134 111l109 -131l-188 -157h-109l-189 157zM221 879v-708h505v-171h-676v879h171z" />
    <glyph glyph-name="uni013B" unicode="&#x13b;" horiz-adv-x="756" 
d="M221 879v-708h505v-171h-676v879h171zM400 -42l133 -130l-240 -207l-96 95z" />
    <glyph glyph-name="Lslash" unicode="&#x141;" horiz-adv-x="756" 
d="M297 0l-86 -234l-161 59l64 175h-64v879h171v-589l254 690l160 -59l-275 -750h366v-171h-429z" />
    <glyph glyph-name="M" unicode="M" horiz-adv-x="958" 
d="M229 879l250 -638l250 638h179v-881h-171v435l-170 -435h-177l-169 435v-435h-171v881h179z" />
    <glyph glyph-name="N" unicode="N" horiz-adv-x="824" 
d="M221 0h-171v879h178l376 -587v587l170 1v-882h-186l-367 576v-574z" />
    <glyph glyph-name="Nacute" unicode="&#x143;" horiz-adv-x="824" 
d="M512 1279l133 -130l-240 -207l-96 95zM221 0h-171v879h178l376 -587v587l170 1v-882h-186l-367 576v-574z" />
    <glyph glyph-name="Ncaron" unicode="&#x147;" horiz-adv-x="824" 
d="M279 1238l133 -111l134 111l109 -131l-188 -157h-109l-189 157zM221 0h-171v879h178l376 -587v587l170 1v-882h-186l-367 576v-574z" />
    <glyph glyph-name="uni0145" unicode="&#x145;" horiz-adv-x="824" 
d="M221 0h-171v879h178l376 -587v587l170 1v-882h-186l-367 576v-574zM418 -7l133 -130l-240 -207l-96 95z" />
    <glyph glyph-name="Eng" unicode="&#x14a;" horiz-adv-x="824" 
d="M525 -121q35 20 56 54.5t22 75.5l-382 564v-575h-171v882h177l377 -589v587h170v-881q-4 -85 -49 -155.5t-117.5 -111.5t-158.5 -41v170q41 0 76 20z" />
    <glyph glyph-name="Ntilde" unicode="&#xd1;" horiz-adv-x="824" 
d="M427 949.5q-40 18.5 -74 53.5q-21 23 -35 18q-7 -2 -14 -14t-10 -31l-170 24q10 65 46 115q38 50 97 69q27 9 56 9q42 0 82 -18.5t73 -54.5q9 -10 18.5 -14.5t15.5 -2.5q7 2 14 14t10 32l169 -23q-9 -69 -45 -115q-39 -53 -96 -71q-27 -9 -56 -9q-41 0 -81 18.5zM221 0
h-171v879h178l376 -587v587l170 1v-882h-186l-367 576v-574z" />
    <glyph glyph-name="O" unicode="O" horiz-adv-x="966" 
d="M256 48q-104 61 -165 165t-61 227t61 227t165 165t227 61t227 -61t165 -165t61 -227t-61 -227t-165 -165t-227 -61t-227 61zM624.5 195q64.5 38 102.5 103t38 142q0 76 -38 141t-102.5 103t-141.5 38t-141.5 -38t-102.5 -103t-38 -141q0 -77 38 -142t102.5 -103
t141.5 -38t141.5 38z" />
    <glyph glyph-name="Oacute" unicode="&#xd3;" horiz-adv-x="966" 
d="M546 1279l133 -130l-240 -207l-96 95zM256 48q-104 61 -165 165t-61 227t61 227t165 165t227 61t227 -61t165 -165t61 -227t-61 -227t-165 -165t-227 -61t-227 61zM624.5 195q64.5 38 102.5 103t38 142q0 76 -38 141t-102.5 103t-141.5 38t-141.5 -38t-102.5 -103
t-38 -141q0 -77 38 -142t102.5 -103t141.5 -38t141.5 38z" />
    <glyph glyph-name="Ocircumflex" unicode="&#xd4;" horiz-adv-x="966" 
d="M434 1223h109l189 -157l-110 -131l-133 111l-134 -111l-109 131zM256 48q-104 61 -165 165t-61 227t61 227t165 165t227 61t227 -61t165 -165t61 -227t-61 -227t-165 -165t-227 -61t-227 61zM624.5 195q64.5 38 102.5 103t38 142q0 76 -38 141t-102.5 103t-141.5 38
t-141.5 -38t-102.5 -103t-38 -141q0 -77 38 -142t102.5 -103t141.5 -38t141.5 38z" />
    <glyph glyph-name="Odieresis" unicode="&#xd6;" horiz-adv-x="966" 
d="M273 978q-32 32 -32 78q0 45 32 77t77 32t77 -32t32 -77q0 -46 -32 -78t-77 -32t-77 32zM534 978q-32 32 -32 78q0 45 32 77t77 32t77 -32t32 -77q0 -46 -32 -78t-77 -32t-77 32zM256 48q-104 61 -165 165t-61 227t61 227t165 165t227 61t227 -61t165 -165t61 -227
t-61 -227t-165 -165t-227 -61t-227 61zM624.5 195q64.5 38 102.5 103t38 142q0 76 -38 141t-102.5 103t-141.5 38t-141.5 -38t-102.5 -103t-38 -141q0 -77 38 -142t102.5 -103t141.5 -38t141.5 38z" />
    <glyph glyph-name="Ograve" unicode="&#xd2;" horiz-adv-x="966" 
d="M393 1287l204 -242l-96 -95l-240 207zM256 48q-104 61 -165 165t-61 227t61 227t165 165t227 61t227 -61t165 -165t61 -227t-61 -227t-165 -165t-227 -61t-227 61zM624.5 195q64.5 38 102.5 103t38 142q0 76 -38 141t-102.5 103t-141.5 38t-141.5 -38t-102.5 -103
t-38 -141q0 -77 38 -142t102.5 -103t141.5 -38t141.5 38z" />
    <glyph glyph-name="Ohungarumlaut" unicode="&#x150;" horiz-adv-x="966" 
d="M430 1283l133 -130l-240 -207l-96 95zM696 1283l133 -130l-240 -207l-96 95zM256 48q-104 61 -165 165t-61 227t61 227t165 165t227 61t227 -61t165 -165t61 -227t-61 -227t-165 -165t-227 -61t-227 61zM624.5 195q64.5 38 102.5 103t38 142q0 76 -38 141t-102.5 103
t-141.5 38t-141.5 -38t-102.5 -103t-38 -141q0 -77 38 -142t102.5 -103t141.5 -38t141.5 38z" />
    <glyph glyph-name="Omacron" unicode="&#x14c;" horiz-adv-x="966" 
d="M658 1073v-118h-341v118h341zM256 48q-104 61 -165 165t-61 227t61 227t165 165t227 61t227 -61t165 -165t61 -227t-61 -227t-165 -165t-227 -61t-227 61zM624.5 195q64.5 38 102.5 103t38 142q0 76 -38 141t-102.5 103t-141.5 38t-141.5 -38t-102.5 -103t-38 -141
q0 -77 38 -142t102.5 -103t141.5 -38t141.5 38z" />
    <glyph glyph-name="Oslash" unicode="&#xd8;" horiz-adv-x="966" 
d="M112 185q-37 55 -57.5 120t-20.5 134q0 123 61 227t165 165t227 61q69 0 134 -20.5t120 -57.5l103 102l121 -120l-103 -103q78 -114 78 -254q0 -123 -61 -227t-165 -165t-227 -61q-138 0 -254 78l-102 -103l-121 121zM487 721q-76 0 -141 -38t-103 -102.5t-38 -141.5
q0 -68 32 -130l380 380q-59 32 -130 32zM629 195q65 38 103 102.5t38 141.5q0 68 -32 130l-380 -381q59 -31 129 -31q77 0 142 38z" />
    <glyph glyph-name="Otilde" unicode="&#xd5;" horiz-adv-x="966" 
d="M501 924.5q-40 18.5 -74 53.5q-21 23 -35 18q-7 -2 -14 -14t-10 -31l-170 24q10 65 46 115q38 50 97 69q27 9 56 9q42 0 82 -18.5t73 -54.5q9 -10 18.5 -14.5t15.5 -2.5q7 2 14 14t10 32l169 -23q-9 -69 -45 -115q-39 -53 -96 -71q-27 -9 -56 -9q-41 0 -81 18.5zM256 48
q-104 61 -165 165t-61 227t61 227t165 165t227 61t227 -61t165 -165t61 -227t-61 -227t-165 -165t-227 -61t-227 61zM624.5 195q64.5 38 102.5 103t38 142q0 76 -38 141t-102.5 103t-141.5 38t-141.5 -38t-102.5 -103t-38 -141q0 -77 38 -142t102.5 -103t141.5 -38t141.5 38
z" />
    <glyph glyph-name="OE" unicode="&#x152;" horiz-adv-x="1481" 
d="M256 47q-104 61 -165 165t-61 227t61 227t165 165t227 61q79 0 151 -26t131 -73v86h676v-171h-505v-184h414v-171h-414v-183h505v-171h-676v86q-59 -47 -131 -73t-151 -26q-123 0 -227 61zM624.5 195q64.5 38 102.5 102.5t38 141.5t-38 141.5t-102.5 102.5t-141.5 38
t-141.5 -38t-102.5 -102.5t-38 -141.5t38 -141.5t102.5 -102.5t141.5 -38t141.5 38z" />
    <glyph glyph-name="P" unicode="P" horiz-adv-x="723" 
d="M377 879q86 0 158.5 -42.5t115 -115t42.5 -158.5v-7q0 -98 -53.5 -177.5t-143.5 -115.5l-275 -112v-151h-171v879h327zM498 474.5q25 36.5 25 81.5v7q0 39 -20 72.5t-53.5 53.5t-72.5 20h-156v-374l211 86q41 17 66 53.5z" />
    <glyph glyph-name="Thorn" unicode="&#xde;" horiz-adv-x="723" 
d="M221 1029v-150h156q86 0 158.5 -42.5t115 -115t42.5 -158.5v-7q0 -98 -53.5 -177.5t-143.5 -115.5l-275 -112v-151h-171v1029h171zM498 474.5q25 36.5 25 81.5v7q0 39 -20 72.5t-53.5 53.5t-72.5 20h-156v-374l211 86q41 17 66 53.5z" />
    <glyph glyph-name="Q" unicode="Q" horiz-adv-x="966" 
d="M578.5 -237q-34.5 24 -75.5 65q-33 33 -54 49t-48 20l-10 1q-52 0 -104 -74l-123 101q58 78 119 111q-114 56 -183.5 165.5t-69.5 241.5q0 123 61 227t165 165t227 61t227 -61t165 -165t61 -227q0 -110 -49.5 -205.5t-135 -159.5t-191.5 -82l27 -26q33 -33 55 -49.5
t49 -20.5q4 -1 11 -1q44 0 89 55l127 -94q-52 -67 -108 -99t-114 -32q-17 0 -34 3q-49 7 -83.5 31zM624.5 199q64.5 38 102.5 102.5t38 141.5t-38 141.5t-102.5 102.5t-141.5 38t-141.5 -38t-102.5 -102.5t-38 -141.5t38 -141.5t102.5 -102.5t141.5 -38t141.5 38z" />
    <glyph glyph-name="R" unicode="R" horiz-adv-x="721" 
d="M377 879q86 0 158.5 -42.5t115 -115t42.5 -158.5v-7q0 -88 -45 -163t-122 -116l185 -277h-206l-139 210l-145 -59v-151h-171v879h327zM498 474.5q25 36.5 25 81.5v7q0 39 -20 72.5t-53.5 53.5t-72.5 20h-156v-374l211 86q41 17 66 53.5z" />
    <glyph glyph-name="Racute" unicode="&#x154;" horiz-adv-x="721" 
d="M478 1279l133 -130l-240 -207l-96 95zM377 879q86 0 158.5 -42.5t115 -115t42.5 -158.5v-7q0 -88 -45 -163t-122 -116l185 -277h-206l-139 210l-145 -59v-151h-171v879h327zM498 474.5q25 36.5 25 81.5v7q0 39 -20 72.5t-53.5 53.5t-72.5 20h-156v-374l211 86
q41 17 66 53.5z" />
    <glyph glyph-name="Rcaron" unicode="&#x158;" horiz-adv-x="721" 
d="M262 1238l133 -111l134 111l109 -131l-188 -157h-109l-189 157zM377 879q86 0 158.5 -42.5t115 -115t42.5 -158.5v-7q0 -88 -45 -163t-122 -116l185 -277h-206l-139 210l-145 -59v-151h-171v879h327zM498 474.5q25 36.5 25 81.5v7q0 39 -20 72.5t-53.5 53.5t-72.5 20
h-156v-374l211 86q41 17 66 53.5z" />
    <glyph glyph-name="uni0156" unicode="&#x156;" horiz-adv-x="721" 
d="M377 879q86 0 158.5 -42.5t115 -115t42.5 -158.5v-7q0 -88 -45 -163t-122 -116l185 -277h-206l-139 210l-145 -59v-151h-171v879h327zM498 474.5q25 36.5 25 81.5v7q0 39 -20 72.5t-53.5 53.5t-72.5 20h-156v-374l211 86q41 17 66 53.5zM373 -32l133 -130l-240 -207
l-96 95z" />
    <glyph glyph-name="S" unicode="S" horiz-adv-x="704" 
d="M165 12.5q-85 33.5 -152 96.5l-3 3l97 115l4 -3q53 -48 115.5 -73.5t126.5 -25.5q70 0 110.5 27t40.5 74q0 34 -15 55.5t-40.5 36t-74.5 34.5l-13 5l-121 53q-93 36 -141.5 96.5t-48.5 140.5q0 73 40 130.5t110.5 90t159.5 32.5q80 0 155 -29.5t130 -83.5l3 -3l-86 -107
l-3 3q-50 39 -98.5 56.5t-107.5 17.5q-62 0 -98.5 -26t-36.5 -71q0 -30 18 -50.5t45 -34t77 -32.5l122 -53q99 -38 146.5 -97t47.5 -144q0 -78 -42 -138.5t-117.5 -94.5t-171.5 -34q-93 0 -178 33.5z" />
    <glyph glyph-name="Sacute" unicode="&#x15a;" horiz-adv-x="704" 
d="M466 1279l133 -130l-240 -207l-96 95zM165 12.5q-85 33.5 -152 96.5l-3 3l97 115l4 -3q53 -48 115.5 -73.5t126.5 -25.5q70 0 110.5 27t40.5 74q0 34 -15 55.5t-40.5 36t-74.5 34.5l-13 5l-121 53q-93 36 -141.5 96.5t-48.5 140.5q0 73 40 130.5t110.5 90t159.5 32.5
q80 0 155 -29.5t130 -83.5l3 -3l-86 -107l-3 3q-50 39 -98.5 56.5t-107.5 17.5q-62 0 -98.5 -26t-36.5 -71q0 -30 18 -50.5t45 -34t77 -32.5l122 -53q99 -38 146.5 -97t47.5 -144q0 -78 -42 -138.5t-117.5 -94.5t-171.5 -34q-93 0 -178 33.5z" />
    <glyph glyph-name="Scaron" unicode="&#x160;" horiz-adv-x="704" 
d="M232 1238l133 -111l134 111l109 -131l-188 -157h-109l-189 157zM165 12.5q-85 33.5 -152 96.5l-3 3l97 115l4 -3q53 -48 115.5 -73.5t126.5 -25.5q70 0 110.5 27t40.5 74q0 34 -15 55.5t-40.5 36t-74.5 34.5l-13 5l-121 53q-93 36 -141.5 96.5t-48.5 140.5q0 73 40 130.5
t110.5 90t159.5 32.5q80 0 155 -29.5t130 -83.5l3 -3l-86 -107l-3 3q-50 39 -98.5 56.5t-107.5 17.5q-62 0 -98.5 -26t-36.5 -71q0 -30 18 -50.5t45 -34t77 -32.5l122 -53q99 -38 146.5 -97t47.5 -144q0 -78 -42 -138.5t-117.5 -94.5t-171.5 -34q-93 0 -178 33.5z" />
    <glyph glyph-name="Scedilla" unicode="&#x15e;" horiz-adv-x="704" 
d="M637 115q-37 -58 -103.5 -93.5t-153.5 -41.5l-27 -64q51 -12 76 -35.5t25 -63.5q0 -128 -262 -137l-14 78q77 4 106.5 17t29.5 41q0 22 -22 35.5t-79 20.5l54 113q-73 11 -137.5 42.5t-116.5 81.5l-3 3l97 115l4 -3q53 -48 115.5 -73.5t126.5 -25.5q70 0 110.5 27
t40.5 74q0 34 -15 55.5t-40.5 36t-74.5 34.5l-13 5l-121 53q-93 36 -141.5 96.5t-48.5 140.5q0 73 40 130.5t110.5 90t159.5 32.5q80 0 155 -29.5t130 -83.5l3 -3l-86 -107l-3 3q-50 39 -98.5 56.5t-107.5 17.5q-62 0 -98.5 -26t-36.5 -71q0 -30 18 -50.5t45 -34t77 -32.5
l122 -53q99 -38 146.5 -97t47.5 -144q0 -73 -37 -131z" />
    <glyph glyph-name="uni0218" unicode="&#x218;" horiz-adv-x="704" 
d="M165 12.5q-85 33.5 -152 96.5l-3 3l97 115l4 -3q53 -48 115.5 -73.5t126.5 -25.5q70 0 110.5 27t40.5 74q0 34 -15 55.5t-40.5 36t-74.5 34.5l-13 5l-121 53q-93 36 -141.5 96.5t-48.5 140.5q0 73 40 130.5t110.5 90t159.5 32.5q80 0 155 -29.5t130 -83.5l3 -3l-86 -107
l-3 3q-50 39 -98.5 56.5t-107.5 17.5q-62 0 -98.5 -26t-36.5 -71q0 -30 18 -50.5t45 -34t77 -32.5l122 -53q99 -38 146.5 -97t47.5 -144q0 -78 -42 -138.5t-117.5 -94.5t-171.5 -34q-93 0 -178 33.5zM349 -48l133 -130l-240 -207l-96 95z" />
    <glyph glyph-name="T" unicode="T" horiz-adv-x="812" 
d="M20 710v170h772v-170h-302v-710h-170v710h-300z" />
    <glyph glyph-name="Tbar" unicode="&#x166;" horiz-adv-x="812" 
d="M490 525h182v-171h-182v-354h-170v354h-175v171h175v185h-300v170h772v-170h-302v-185z" />
    <glyph glyph-name="Tcaron" unicode="&#x164;" horiz-adv-x="812" 
d="M286 1238l133 -111l134 111l109 -131l-188 -157h-109l-189 157zM20 710v170h772v-170h-302v-710h-170v710h-300z" />
    <glyph glyph-name="uni0162" unicode="&#x162;" horiz-adv-x="812" 
d="M450 -95q51 -12 76 -35.5t25 -63.5q0 -128 -262 -137l-14 78q77 4 106.5 17t29.5 41q0 22 -22 35.5t-79 20.5l66 139h-56v710h-300v170h772v-170h-302v-710z" />
    <glyph glyph-name="uni021A" unicode="&#x21a;" horiz-adv-x="812" 
d="M20 710v170h772v-170h-302v-710h-170v710h-300zM411 -53l133 -130l-240 -207l-96 95z" />
    <glyph glyph-name="U" unicode="U" horiz-adv-x="881" 
d="M244.5 42.5q-89.5 52.5 -142 142t-52.5 195.5v499h171v-499q0 -60 29.5 -110t79.5 -79.5t110 -29.5t110.5 29.5t80 80t29.5 109.5v499h171v-499q0 -106 -53 -195.5t-142.5 -142t-195.5 -52.5t-195.5 52.5z" />
    <glyph glyph-name="Uacute" unicode="&#xda;" horiz-adv-x="881" 
d="M546 1279l133 -130l-240 -207l-96 95zM244.5 42.5q-89.5 52.5 -142 142t-52.5 195.5v499h171v-499q0 -60 29.5 -110t79.5 -79.5t110 -29.5t110.5 29.5t80 80t29.5 109.5v499h171v-499q0 -106 -53 -195.5t-142.5 -142t-195.5 -52.5t-195.5 52.5z" />
    <glyph glyph-name="Ucircumflex" unicode="&#xdb;" horiz-adv-x="881" 
d="M385 1223h109l189 -157l-110 -131l-133 111l-134 -111l-109 131zM244.5 42.5q-89.5 52.5 -142 142t-52.5 195.5v499h171v-499q0 -60 29.5 -110t79.5 -79.5t110 -29.5t110.5 29.5t80 80t29.5 109.5v499h171v-499q0 -106 -53 -195.5t-142.5 -142t-195.5 -52.5t-195.5 52.5z
" />
    <glyph glyph-name="Udieresis" unicode="&#xdc;" horiz-adv-x="881" 
d="M236 978q-32 32 -32 78q0 45 32 77t77 32t77 -32t32 -77q0 -46 -32 -78t-77 -32t-77 32zM497 978q-32 32 -32 78q0 45 32 77t77 32t77 -32t32 -77q0 -46 -32 -78t-77 -32t-77 32zM244.5 42.5q-89.5 52.5 -142 142t-52.5 195.5v499h171v-499q0 -60 29.5 -110t79.5 -79.5
t110 -29.5t110.5 29.5t80 80t29.5 109.5v499h171v-499q0 -106 -53 -195.5t-142.5 -142t-195.5 -52.5t-195.5 52.5z" />
    <glyph glyph-name="Ugrave" unicode="&#xd9;" horiz-adv-x="881" 
d="M393 1287l204 -242l-96 -95l-240 207zM244.5 42.5q-89.5 52.5 -142 142t-52.5 195.5v499h171v-499q0 -60 29.5 -110t79.5 -79.5t110 -29.5t110.5 29.5t80 80t29.5 109.5v499h171v-499q0 -106 -53 -195.5t-142.5 -142t-195.5 -52.5t-195.5 52.5z" />
    <glyph glyph-name="Uhungarumlaut" unicode="&#x170;" horiz-adv-x="881" 
d="M390 1283l133 -130l-240 -207l-96 95zM656 1283l133 -130l-240 -207l-96 95zM244.5 42.5q-89.5 52.5 -142 142t-52.5 195.5v499h171v-499q0 -60 29.5 -110t79.5 -79.5t110 -29.5t110.5 29.5t80 80t29.5 109.5v499h171v-499q0 -106 -53 -195.5t-142.5 -142t-195.5 -52.5
t-195.5 52.5z" />
    <glyph glyph-name="Umacron" unicode="&#x16a;" horiz-adv-x="881" 
d="M609 1073v-118h-341v118h341zM244.5 42.5q-89.5 52.5 -142 142t-52.5 195.5v499h171v-499q0 -60 29.5 -110t79.5 -79.5t110 -29.5t110.5 29.5t80 80t29.5 109.5v499h171v-499q0 -106 -53 -195.5t-142.5 -142t-195.5 -52.5t-195.5 52.5z" />
    <glyph glyph-name="Uogonek" unicode="&#x172;" horiz-adv-x="881" 
d="M831 380q0 -95 -43.5 -178t-119 -138t-167.5 -69q-38 -31 -57 -61t-19 -62q0 -30 20 -45.5t46 -15.5q21 0 38.5 5.5t27.5 13.5l41 -87q-26 -21 -68.5 -34t-85.5 -13q-66 0 -108 34t-42 98q0 52 29 94.5t66 70.5q-95 13 -172.5 67.5t-122 138.5t-44.5 181v499h171v-499
q0 -60 29.5 -110t79.5 -79.5t110 -29.5t110.5 29.5t80 80t29.5 109.5v499h171v-499z" />
    <glyph glyph-name="Uring" unicode="&#x16e;" horiz-adv-x="881" 
d="M352.5 966q-37.5 22 -59.5 60t-22 83q0 44 22 82t59.5 60t82.5 22q44 0 82 -22t60 -60t22 -82q0 -45 -22 -83t-60 -60t-82 -22q-45 0 -82.5 22zM467.5 1076.5q13.5 13.5 13.5 32.5t-13.5 32.5t-32.5 13.5t-32.5 -13.5t-13.5 -32.5t13.5 -32.5t32.5 -13.5t32.5 13.5z
M244.5 42.5q-89.5 52.5 -142 142t-52.5 195.5v499h171v-499q0 -60 29.5 -110t79.5 -79.5t110 -29.5t110.5 29.5t80 80t29.5 109.5v499h171v-499q0 -106 -53 -195.5t-142.5 -142t-195.5 -52.5t-195.5 52.5z" />
    <glyph glyph-name="V" unicode="V" horiz-adv-x="829" 
d="M191 879l224 -626l223 626h181l-314 -881h-181l-314 881h181z" />
    <glyph glyph-name="W" unicode="W" horiz-adv-x="1184" 
d="M182 879l240 -636l79 210l-161 426h183l69 -184l69 184h183l-161 -426l79 -210l240 636h182l-331 -879h-181l-80 211l-80 -211h-181l-331 879h182z" />
    <glyph glyph-name="Wacute" unicode="&#x1e82;" horiz-adv-x="1184" 
d="M683 1279l133 -130l-240 -207l-96 95zM182 879l240 -636l79 210l-161 426h183l69 -184l69 184h183l-161 -426l79 -210l240 636h182l-331 -879h-181l-80 211l-80 -211h-181l-331 879h182z" />
    <glyph glyph-name="Wcircumflex" unicode="&#x174;" horiz-adv-x="1184" 
d="M530 1223h109l189 -157l-110 -131l-133 111l-134 -111l-109 131zM182 879l240 -636l79 210l-161 426h183l69 -184l69 184h183l-161 -426l79 -210l240 636h182l-331 -879h-181l-80 211l-80 -211h-181l-331 879h182z" />
    <glyph glyph-name="Wdieresis" unicode="&#x1e84;" horiz-adv-x="1184" 
d="M379 978q-32 32 -32 78q0 45 32 77t77 32t77 -32t32 -77q0 -46 -32 -78t-77 -32t-77 32zM640 978q-32 32 -32 78q0 45 32 77t77 32t77 -32t32 -77q0 -46 -32 -78t-77 -32t-77 32zM182 879l240 -636l79 210l-161 426h183l69 -184l69 184h183l-161 -426l79 -210l240 636
h182l-331 -879h-181l-80 211l-80 -211h-181l-331 879h182z" />
    <glyph glyph-name="Wgrave" unicode="&#x1e80;" horiz-adv-x="1184" 
d="M522 1287l204 -242l-96 -95l-240 207zM182 879l240 -636l79 210l-161 426h183l69 -184l69 184h183l-161 -426l79 -210l240 636h182l-331 -879h-181l-80 211l-80 -211h-181l-331 879h182z" />
    <glyph glyph-name="X" unicode="X" horiz-adv-x="892" 
d="M0 879h216l230 -299l230 299h216l-338 -439l338 -440h-215l-231 300l-231 -300h-215l338 440z" />
    <glyph glyph-name="Y" unicode="Y" horiz-adv-x="753" 
d="M0 878h192l185 -359l184 359h192l-291 -566v-312h-171v312z" />
    <glyph glyph-name="Yacute" unicode="&#xdd;" horiz-adv-x="753" 
d="M470 1279l133 -130l-240 -207l-96 95zM0 878h192l185 -359l184 359h192l-291 -566v-312h-171v312z" />
    <glyph glyph-name="Ycircumflex" unicode="&#x176;" horiz-adv-x="753" 
d="M324 1223h109l189 -157l-110 -131l-133 111l-134 -111l-109 131zM0 878h192l185 -359l184 359h192l-291 -566v-312h-171v312z" />
    <glyph glyph-name="Ydieresis" unicode="&#x178;" horiz-adv-x="753" 
d="M164 978q-32 32 -32 78q0 45 32 77t77 32t77 -32t32 -77q0 -46 -32 -78t-77 -32t-77 32zM425 978q-32 32 -32 78q0 45 32 77t77 32t77 -32t32 -77q0 -46 -32 -78t-77 -32t-77 32zM0 878h192l185 -359l184 359h192l-291 -566v-312h-171v312z" />
    <glyph glyph-name="Ygrave" unicode="&#x1ef2;" horiz-adv-x="753" 
d="M327 1287l204 -242l-96 -95l-240 207zM0 878h192l185 -359l184 359h192l-291 -566v-312h-171v312z" />
    <glyph glyph-name="Z" unicode="Z" horiz-adv-x="740" 
d="M445 709h-352v170h597v-111l-398 -597h395v-171h-647v101z" />
    <glyph glyph-name="Zacute" unicode="&#x179;" horiz-adv-x="740" 
d="M475 1279l133 -130l-240 -207l-96 95zM445 709h-352v170h597v-111l-398 -597h395v-171h-647v101z" />
    <glyph glyph-name="Zcaron" unicode="&#x17d;" horiz-adv-x="740" 
d="M268 1238l133 -111l134 111l109 -131l-188 -157h-109l-189 157zM445 709h-352v170h597v-111l-398 -597h395v-171h-647v101z" />
    <glyph glyph-name="Zdotaccent" unicode="&#x17b;" horiz-adv-x="740" 
d="M297 978q-32 32 -32 78q0 45 32 77t77 32t77 -32t32 -77q0 -46 -32 -78t-77 -32t-77 32zM445 709h-352v170h597v-111l-398 -597h395v-171h-647v101z" />
    <glyph glyph-name="a" unicode="a" 
d="M549 881l314 -881h-181l-57 161h-376l-58 -161h-181l314 881h225zM437 688l-127 -356h254z" />
    <glyph glyph-name="aacute" unicode="&#xe1;" 
d="M546 1279l133 -130l-240 -207l-96 95zM549 881l314 -881h-181l-57 161h-376l-58 -161h-181l314 881h225zM437 688l-127 -356h254z" />
    <glyph glyph-name="abreve" unicode="&#x103;" 
d="M299 971q-60 35 -95 95t-35 131h171q0 -37 26.5 -63.5t63.5 -26.5q38 0 64 26.5t26 63.5h171q0 -71 -35 -131t-95 -95t-131 -35t-131 35zM549 881l314 -881h-181l-57 161h-376l-58 -161h-181l314 881h225zM437 688l-127 -356h254z" />
    <glyph glyph-name="acircumflex" unicode="&#xe2;" 
d="M377 1223h109l189 -157l-110 -131l-133 111l-134 -111l-109 131zM549 881l314 -881h-181l-57 161h-376l-58 -161h-181l314 881h225zM437 688l-127 -356h254z" />
    <glyph glyph-name="adieresis" unicode="&#xe4;" 
d="M230 978q-32 32 -32 78q0 45 32 77t77 32t77 -32t32 -77q0 -46 -32 -78t-77 -32t-77 32zM491 978q-32 32 -32 78q0 45 32 77t77 32t77 -32t32 -77q0 -46 -32 -78t-77 -32t-77 32zM549 881l314 -881h-181l-57 161h-376l-58 -161h-181l314 881h225zM437 688l-127 -356h254z
" />
    <glyph glyph-name="agrave" unicode="&#xe0;" 
d="M393 1287l204 -242l-96 -95l-240 207zM549 881l314 -881h-181l-57 161h-376l-58 -161h-181l314 881h225zM437 688l-127 -356h254z" />
    <glyph glyph-name="amacron" unicode="&#x101;" 
d="M613 1073v-118h-341v118h341zM549 881l314 -881h-181l-57 161h-376l-58 -161h-181l314 881h225zM437 688l-127 -356h254z" />
    <glyph glyph-name="aogonek" unicode="&#x105;" 
d="M884.5 -291q-42.5 -13 -85.5 -13q-66 0 -108 34t-42 98q0 55 32.5 100.5t71.5 71.5h-71l-57 161h-376l-58 -161h-181l314 881h225l314 -881h-1q-40 -32 -61 -63.5t-21 -64.5q0 -30 20 -45.5t46 -15.5q21 0 38.5 5.5t27.5 13.5l41 -87q-26 -21 -68.5 -34zM437 688
l-127 -356h254z" />
    <glyph glyph-name="aring" unicode="&#xe5;" 
d="M682 0l-57 161h-376l-58 -161h-181l308 864q-24 23 -38 54.5t-14 66.5q0 44 22 82t59.5 60t82.5 22q44 0 82 -22t60 -60t22 -82q0 -63 -43 -111l312 -874h-181zM397.5 1017.5q-13.5 -13.5 -13.5 -32.5t13.5 -32.5t32.5 -13.5t32.5 13.5t13.5 32.5t-13.5 32.5t-32.5 13.5
t-32.5 -13.5zM437 688l-127 -356h254z" />
    <glyph glyph-name="atilde" unicode="&#xe3;" 
d="M452 934.5q-40 18.5 -74 53.5q-21 23 -35 18q-7 -2 -14 -14t-10 -31l-170 24q10 65 46 115q38 50 97 69q27 9 56 9q42 0 82 -18.5t73 -54.5q9 -10 18.5 -14.5t15.5 -2.5q7 2 14 14t10 32l169 -23q-9 -69 -45 -115q-39 -53 -96 -71q-27 -9 -56 -9q-41 0 -81 18.5zM549 881
l314 -881h-181l-57 161h-376l-58 -161h-181l314 881h225zM437 688l-127 -356h254z" />
    <glyph glyph-name="ae" unicode="&#xe6;" horiz-adv-x="1384" 
d="M1344 880v-171h-506v-184h414v-170h-414v-184h506v-171h-676v194h-310l-145 -194h-213l657 880h687zM668 609l-183 -244h183v244z" />
    <glyph glyph-name="b" unicode="b" horiz-adv-x="782" 
d="M434 879q70 0 129.5 -35t94.5 -94t35 -129q0 -87 -52 -156q51 -35 81 -90.5t30 -119.5q0 -69 -34.5 -127.5t-93 -93t-127.5 -34.5h-447v879h384zM508 572q15 22 15 49q0 36 -26 62t-63 26h-213v-277l247 107q25 11 40 33zM557 195q25 25 25 60t-25 59.5t-60 24.5h-61
l-215 -93v-76h276q35 0 60 25z" />
    <glyph glyph-name="c" unicode="c" horiz-adv-x="867" 
d="M256 48q-104 61 -165 165t-61 227t61 227t165 165t227 61q107 0 203.5 -49t160.5 -135l-137 -101q-41 54 -100.5 84t-126.5 30q-77 0 -141.5 -38t-102.5 -103t-38 -141q0 -77 38 -142t102.5 -103t141.5 -38q58 0 111 23t94 66l125 -117q-64 -68 -150.5 -105t-179.5 -37
q-123 0 -227 61z" />
    <glyph glyph-name="cacute" unicode="&#x107;" horiz-adv-x="867" 
d="M546 1279l133 -130l-240 -207l-96 95zM256 48q-104 61 -165 165t-61 227t61 227t165 165t227 61q107 0 203.5 -49t160.5 -135l-137 -101q-41 54 -100.5 84t-126.5 30q-77 0 -141.5 -38t-102.5 -103t-38 -141q0 -77 38 -142t102.5 -103t141.5 -38q58 0 111 23t94 66
l125 -117q-64 -68 -150.5 -105t-179.5 -37q-123 0 -227 61z" />
    <glyph glyph-name="ccaron" unicode="&#x10d;" horiz-adv-x="867" 
d="M335 1238l133 -111l134 111l109 -131l-188 -157h-109l-189 157zM256 48q-104 61 -165 165t-61 227t61 227t165 165t227 61q107 0 203.5 -49t160.5 -135l-137 -101q-41 54 -100.5 84t-126.5 30q-77 0 -141.5 -38t-102.5 -103t-38 -141q0 -77 38 -142t102.5 -103t141.5 -38
q58 0 111 23t94 66l125 -117q-64 -68 -150.5 -105t-179.5 -37q-123 0 -227 61z" />
    <glyph glyph-name="ccedilla" unicode="&#xe7;" horiz-adv-x="867" 
d="M594 180q53 23 94 66l125 -117q-56 -59 -129 -95t-154 -45l-31 -73q51 -12 76 -35.5t25 -63.5q0 -128 -262 -137l-14 78q77 4 106.5 17t29.5 41q0 22 -22 35.5t-79 20.5l57 120q-108 16 -196 79.5t-139 160t-51 208.5q0 123 61 227t165 165t227 61q107 0 203.5 -49
t160.5 -135l-137 -101q-41 54 -100.5 84t-126.5 30q-77 0 -141.5 -38t-102.5 -103t-38 -141q0 -77 38 -142t102.5 -103t141.5 -38q58 0 111 23z" />
    <glyph glyph-name="cdotaccent" unicode="&#x10b;" horiz-adv-x="867" 
d="M399 978q-32 32 -32 78q0 45 32 77t77 32t77 -32t32 -77q0 -46 -32 -78t-77 -32t-77 32zM256 48q-104 61 -165 165t-61 227t61 227t165 165t227 61q107 0 203.5 -49t160.5 -135l-137 -101q-41 54 -100.5 84t-126.5 30q-77 0 -141.5 -38t-102.5 -103t-38 -141
q0 -77 38 -142t102.5 -103t141.5 -38q58 0 111 23t94 66l125 -117q-64 -68 -150.5 -105t-179.5 -37q-123 0 -227 61z" />
    <glyph glyph-name="d" unicode="d" horiz-adv-x="840" 
d="M370 879q119 0 220.5 -59.5t160.5 -160.5t59 -221t-59 -221t-160 -160t-221 -59h-320v881h320zM505 204.5q62 36.5 98.5 98.5t36.5 135t-36.5 135t-98.5 98.5t-135 36.5h-149v-540h149q73 0 135 36.5z" />
    <glyph glyph-name="eth" unicode="&#xf0;" horiz-adv-x="840" 
d="M590.5 819.5q101.5 -59.5 160.5 -160.5t59 -221t-59 -221t-160 -160t-221 -59h-320v356h-47v171h47v354h320q119 0 220.5 -59.5zM505 204.5q62 36.5 98.5 98.5t36.5 135t-36.5 135t-98.5 98.5t-135 36.5h-149v-183h309v-171h-309v-186h149q73 0 135 36.5z" />
    <glyph glyph-name="dcaron" unicode="&#x10f;" horiz-adv-x="840" 
d="M262 1238l133 -111l134 111l109 -131l-188 -157h-109l-189 157zM370 879q119 0 220.5 -59.5t160.5 -160.5t59 -221t-59 -221t-160 -160t-221 -59h-320v881h320zM505 204.5q62 36.5 98.5 98.5t36.5 135t-36.5 135t-98.5 98.5t-135 36.5h-149v-540h149q73 0 135 36.5z" />
    <glyph glyph-name="dcroat" unicode="&#x111;" horiz-adv-x="840" 
d="M590.5 819.5q101.5 -59.5 160.5 -160.5t59 -221t-59 -221t-160 -160t-221 -59h-320v356h-47v171h47v354h320q119 0 220.5 -59.5zM505 204.5q62 36.5 98.5 98.5t36.5 135t-36.5 135t-98.5 98.5t-135 36.5h-149v-183h309v-171h-309v-186h149q73 0 135 36.5z" />
    <glyph glyph-name="e" unicode="e" horiz-adv-x="766" 
d="M726 879v-170h-505v-184h413v-171h-413v-184h505v-170h-676v879h676z" />
    <glyph glyph-name="eacute" unicode="&#xe9;" horiz-adv-x="766" 
d="M546 1279l133 -130l-240 -207l-96 95zM726 879v-170h-505v-184h413v-171h-413v-184h505v-170h-676v879h676z" />
    <glyph glyph-name="ecaron" unicode="&#x11b;" horiz-adv-x="766" 
d="M280 1238l133 -111l134 111l109 -131l-188 -157h-109l-189 157zM726 879v-170h-505v-184h413v-171h-413v-184h505v-170h-676v879h676z" />
    <glyph glyph-name="ecircumflex" unicode="&#xea;" horiz-adv-x="766" 
d="M355 1223h109l189 -157l-110 -131l-133 111l-134 -111l-109 131zM726 879v-170h-505v-184h413v-171h-413v-184h505v-170h-676v879h676z" />
    <glyph glyph-name="edieresis" unicode="&#xeb;" horiz-adv-x="766" 
d="M205 978q-32 32 -32 78q0 45 32 77t77 32t77 -32t32 -77q0 -46 -32 -78t-77 -32t-77 32zM466 978q-32 32 -32 78q0 45 32 77t77 32t77 -32t32 -77q0 -46 -32 -78t-77 -32t-77 32zM726 879v-170h-505v-184h413v-171h-413v-184h505v-170h-676v879h676z" />
    <glyph glyph-name="edotaccent" unicode="&#x117;" horiz-adv-x="766" 
d="M335 978q-32 32 -32 78q0 45 32 77t77 32t77 -32t32 -77q0 -46 -32 -78t-77 -32t-77 32zM726 879v-170h-505v-184h413v-171h-413v-184h505v-170h-676v879h676z" />
    <glyph glyph-name="egrave" unicode="&#xe8;" horiz-adv-x="766" 
d="M393 1287l204 -242l-96 -95l-240 207zM726 879v-170h-505v-184h413v-171h-413v-184h505v-170h-676v879h676z" />
    <glyph glyph-name="emacron" unicode="&#x113;" horiz-adv-x="766" 
d="M569 1073v-118h-341v118h341zM726 879v-170h-505v-184h413v-171h-413v-184h505v-170h-676v879h676z" />
    <glyph glyph-name="eogonek" unicode="&#x119;" horiz-adv-x="766" 
d="M747.5 -291q-42.5 -13 -85.5 -13q-66 0 -108 34t-42 98q0 55 32.5 100.5t71.5 71.5h-566v879h676v-170h-505v-184h413v-171h-413v-184h505v-170h-1q-40 -32 -61 -63.5t-21 -64.5q0 -30 20 -45.5t46 -15.5q21 0 38.5 5.5t27.5 13.5l41 -87q-26 -21 -68.5 -34z" />
    <glyph glyph-name="f" unicode="f" horiz-adv-x="766" 
d="M726 879v-170h-505v-184h413v-171h-413v-354h-171v879h676z" />
    <glyph glyph-name="g" unicode="g" horiz-adv-x="854" 
d="M256 48q-104 61 -165 165t-61 227t61 227t165 165t227 61q73 0 141.5 -22.5t127.5 -66.5l-101 -137q-75 55 -168 55q-77 0 -141.5 -38t-102.5 -103t-38 -141q0 -77 38 -142t102.5 -103t141.5 -38q82 0 150 44v271h171v-355l-31 -25q-61 -51 -135.5 -78t-154.5 -27
q-123 0 -227 61z" />
    <glyph glyph-name="gbreve" unicode="&#x11f;" horiz-adv-x="854" 
d="M371 971q-60 35 -95 95t-35 131h171q0 -37 26.5 -63.5t63.5 -26.5q38 0 64 26.5t26 63.5h171q0 -71 -35 -131t-95 -95t-131 -35t-131 35zM256 48q-104 61 -165 165t-61 227t61 227t165 165t227 61q73 0 141.5 -22.5t127.5 -66.5l-101 -137q-75 55 -168 55
q-77 0 -141.5 -38t-102.5 -103t-38 -141q0 -77 38 -142t102.5 -103t141.5 -38q82 0 150 44v271h171v-355l-31 -25q-61 -51 -135.5 -78t-154.5 -27q-123 0 -227 61z" />
    <glyph glyph-name="uni0123" unicode="&#x123;" horiz-adv-x="854" 
d="M412.5 967.5q-30.5 28.5 -34.5 70.5q-2 9 -2 27q0 91 97 223h118q-64 -73 -93 -132q41 -4 69 -35t28 -73q0 -45 -31.5 -77t-77.5 -32q-43 0 -73.5 28.5zM256 48q-104 61 -165 165t-61 227t61 227t165 165t227 61q73 0 141.5 -22.5t127.5 -66.5l-101 -137q-75 55 -168 55
q-77 0 -141.5 -38t-102.5 -103t-38 -141q0 -77 38 -142t102.5 -103t141.5 -38q82 0 150 44v271h171v-355l-31 -25q-61 -51 -135.5 -78t-154.5 -27q-123 0 -227 61z" />
    <glyph glyph-name="gdotaccent" unicode="&#x121;" horiz-adv-x="854" 
d="M405 978q-32 32 -32 78q0 45 32 77t77 32t77 -32t32 -77q0 -46 -32 -78t-77 -32t-77 32zM256 48q-104 61 -165 165t-61 227t61 227t165 165t227 61q73 0 141.5 -22.5t127.5 -66.5l-101 -137q-75 55 -168 55q-77 0 -141.5 -38t-102.5 -103t-38 -141q0 -77 38 -142
t102.5 -103t141.5 -38q82 0 150 44v271h171v-355l-31 -25q-61 -51 -135.5 -78t-154.5 -27q-123 0 -227 61z" />
    <glyph glyph-name="h" unicode="h" horiz-adv-x="774" 
d="M221 878v-461l332 145v316h171v-878h-171v376l-332 -145v-231h-171v878h171z" />
    <glyph glyph-name="hbar" unicode="&#x127;" horiz-adv-x="774" 
d="M221 878v-207l332 144v63h171v-878h-171v376l-332 -145v-231h-171v878h171zM553 629l-332 -145v-67l332 145v67z" />
    <glyph glyph-name="i" unicode="i" horiz-adv-x="311" 
d="M241 879v-879h-171v879h171z" />
    <glyph glyph-name="dotlessi" unicode="&#x131;" horiz-adv-x="311" 
d="M241 879v-879h-171v879h171z" />
    <glyph glyph-name="iacute" unicode="&#xed;" horiz-adv-x="311" 
d="M273 1279l133 -130l-240 -207l-96 95zM241 879v-879h-171v879h171z" />
    <glyph glyph-name="icircumflex" unicode="&#xee;" horiz-adv-x="311" 
d="M96 1223h109l189 -157l-110 -131l-133 111l-134 -111l-109 131zM241 879v-879h-171v879h171z" />
    <glyph glyph-name="idieresis" unicode="&#xef;" horiz-adv-x="311" 
d="M-53 978q-32 32 -32 78q0 45 32 77t77 32t77 -32t32 -77q0 -46 -32 -78t-77 -32t-77 32zM208 978q-32 32 -32 78q0 45 32 77t77 32t77 -32t32 -77q0 -46 -32 -78t-77 -32t-77 32zM241 879v-879h-171v879h171z" />
    <glyph glyph-name="i.loclTRK" unicode="&#xe000;" horiz-adv-x="311" 
d="M82 978q-32 32 -32 78q0 45 32 77t77 32t77 -32t32 -77q0 -46 -32 -78t-77 -32t-77 32zM241 879v-879h-171v879h171z" />
    <glyph glyph-name="igrave" unicode="&#xec;" horiz-adv-x="311" 
d="M102 1287l204 -242l-96 -95l-240 207zM241 879v-879h-171v879h171z" />
    <glyph glyph-name="imacron" unicode="&#x12b;" horiz-adv-x="311" 
d="M329 1073v-118h-341v118h341zM241 879v-879h-171v879h171z" />
    <glyph glyph-name="iogonek" unicode="&#x12f;" horiz-adv-x="311" 
d="M264.5 -291q-42.5 -13 -85.5 -13q-66 0 -108 34t-42 98q0 55 32.5 100.5t71.5 71.5h-63v879h171v-879h1q-40 -32 -61 -63.5t-21 -64.5q0 -30 20 -45.5t46 -15.5q21 0 38.5 5.5t27.5 13.5l41 -87q-26 -21 -68.5 -34z" />
    <glyph glyph-name="j" unicode="j" horiz-adv-x="756" 
d="M198.5 32.5q-77.5 45.5 -123 123t-45.5 169.5h171q0 -46 22.5 -84.5t61 -61t83.5 -22.5t83.5 22.5t61 61t22.5 84.5v554h171v-554q0 -92 -45.5 -169.5t-123 -123t-169.5 -45.5t-169.5 45.5z" />
    <glyph glyph-name="k" unicode="k" horiz-adv-x="783" 
d="M221 255v-254h-171v878h171v-362l310 362h224l-286 -334l314 -547h-197l-235 410z" />
    <glyph glyph-name="uni0137" unicode="&#x137;" horiz-adv-x="600" 
d="M221 255v-254h-171v878h171v-362l310 362h224l-286 -334l314 -547h-197l-235 410zM392 -7l133 -130l-240 -207l-96 95z" />
    <glyph glyph-name="l" unicode="l" horiz-adv-x="756" 
d="M221 879v-708h505v-171h-676v879h171z" />
    <glyph glyph-name="lacute" unicode="&#x13a;" horiz-adv-x="756" 
d="M489 1279l133 -130l-240 -207l-96 95zM221 879v-708h505v-171h-676v879h171z" />
    <glyph glyph-name="lcaron" unicode="&#x13e;" horiz-adv-x="756" 
d="M265 1238l133 -111l134 111l109 -131l-188 -157h-109l-189 157zM221 879v-708h505v-171h-676v879h171z" />
    <glyph glyph-name="uni013C" unicode="&#x13c;" horiz-adv-x="756" 
d="M221 879v-708h505v-171h-676v879h171zM359 -37l133 -130l-240 -207l-96 95z" />
    <glyph glyph-name="lslash" unicode="&#x142;" horiz-adv-x="756" 
d="M297 0l-86 -234l-161 59l64 175h-64v879h171v-589l254 690l160 -59l-275 -750h366v-171h-429z" />
    <glyph glyph-name="m" unicode="m" horiz-adv-x="958" 
d="M229 879l250 -638l250 638h179v-881h-171v435l-170 -435h-177l-169 435v-435h-171v881h179z" />
    <glyph glyph-name="n" unicode="n" horiz-adv-x="824" 
d="M221 0h-171v879h178l376 -587v587l170 1v-882h-186l-367 576v-574z" />
    <glyph glyph-name="nacute" unicode="&#x144;" horiz-adv-x="824" 
d="M509 1279l133 -130l-240 -207l-96 95zM221 0h-171v879h178l376 -587v587l170 1v-882h-186l-367 576v-574z" />
    <glyph glyph-name="ncaron" unicode="&#x148;" horiz-adv-x="824" 
d="M281 1238l133 -111l134 111l109 -131l-188 -157h-109l-189 157zM221 0h-171v879h178l376 -587v587l170 1v-882h-186l-367 576v-574z" />
    <glyph glyph-name="uni0146" unicode="&#x146;" horiz-adv-x="824" 
d="M221 0h-171v879h178l376 -587v587l170 1v-882h-186l-367 576v-574zM388 -7l133 -130l-240 -207l-96 95z" />
    <glyph glyph-name="eng" unicode="&#x14b;" horiz-adv-x="824" 
d="M525 -121q35 20 56 54.5t22 75.5l-382 564v-575h-171v882h177l377 -589v587h170v-881q-4 -85 -49 -155.5t-117.5 -111.5t-158.5 -41v170q41 0 76 20z" />
    <glyph glyph-name="ntilde" unicode="&#xf1;" horiz-adv-x="824" 
d="M412 918.5q-40 18.5 -74 53.5q-21 23 -35 18q-7 -2 -14 -14t-10 -31l-170 24q10 65 46 115q38 50 97 69q27 9 56 9q42 0 82 -18.5t73 -54.5q9 -10 18.5 -14.5t15.5 -2.5q7 2 14 14t10 32l169 -23q-9 -69 -45 -115q-39 -53 -96 -71q-27 -9 -56 -9q-41 0 -81 18.5zM221 0
h-171v879h178l376 -587v587l170 1v-882h-186l-367 576v-574z" />
    <glyph glyph-name="o" unicode="o" horiz-adv-x="966" 
d="M256 48q-104 61 -165 165t-61 227t61 227t165 165t227 61t227 -61t165 -165t61 -227t-61 -227t-165 -165t-227 -61t-227 61zM624.5 195q64.5 38 102.5 103t38 142q0 76 -38 141t-102.5 103t-141.5 38t-141.5 -38t-102.5 -103t-38 -141q0 -77 38 -142t102.5 -103
t141.5 -38t141.5 38z" />
    <glyph glyph-name="oacute" unicode="&#xf3;" horiz-adv-x="966" 
d="M546 1279l133 -130l-240 -207l-96 95zM256 48q-104 61 -165 165t-61 227t61 227t165 165t227 61t227 -61t165 -165t61 -227t-61 -227t-165 -165t-227 -61t-227 61zM624.5 195q64.5 38 102.5 103t38 142q0 76 -38 141t-102.5 103t-141.5 38t-141.5 -38t-102.5 -103
t-38 -141q0 -77 38 -142t102.5 -103t141.5 -38t141.5 38z" />
    <glyph glyph-name="ocircumflex" unicode="&#xf4;" horiz-adv-x="966" 
d="M434 1223h109l189 -157l-110 -131l-133 111l-134 -111l-109 131zM256 48q-104 61 -165 165t-61 227t61 227t165 165t227 61t227 -61t165 -165t61 -227t-61 -227t-165 -165t-227 -61t-227 61zM624.5 195q64.5 38 102.5 103t38 142q0 76 -38 141t-102.5 103t-141.5 38
t-141.5 -38t-102.5 -103t-38 -141q0 -77 38 -142t102.5 -103t141.5 -38t141.5 38z" />
    <glyph glyph-name="odieresis" unicode="&#xf6;" horiz-adv-x="966" 
d="M273 978q-32 32 -32 78q0 45 32 77t77 32t77 -32t32 -77q0 -46 -32 -78t-77 -32t-77 32zM534 978q-32 32 -32 78q0 45 32 77t77 32t77 -32t32 -77q0 -46 -32 -78t-77 -32t-77 32zM256 48q-104 61 -165 165t-61 227t61 227t165 165t227 61t227 -61t165 -165t61 -227
t-61 -227t-165 -165t-227 -61t-227 61zM624.5 195q64.5 38 102.5 103t38 142q0 76 -38 141t-102.5 103t-141.5 38t-141.5 -38t-102.5 -103t-38 -141q0 -77 38 -142t102.5 -103t141.5 -38t141.5 38z" />
    <glyph glyph-name="ograve" unicode="&#xf2;" horiz-adv-x="966" 
d="M393 1287l204 -242l-96 -95l-240 207zM256 48q-104 61 -165 165t-61 227t61 227t165 165t227 61t227 -61t165 -165t61 -227t-61 -227t-165 -165t-227 -61t-227 61zM624.5 195q64.5 38 102.5 103t38 142q0 76 -38 141t-102.5 103t-141.5 38t-141.5 -38t-102.5 -103
t-38 -141q0 -77 38 -142t102.5 -103t141.5 -38t141.5 38z" />
    <glyph glyph-name="ohungarumlaut" unicode="&#x151;" horiz-adv-x="966" 
d="M430 1283l133 -130l-240 -207l-96 95zM696 1283l133 -130l-240 -207l-96 95zM256 48q-104 61 -165 165t-61 227t61 227t165 165t227 61t227 -61t165 -165t61 -227t-61 -227t-165 -165t-227 -61t-227 61zM624.5 195q64.5 38 102.5 103t38 142q0 76 -38 141t-102.5 103
t-141.5 38t-141.5 -38t-102.5 -103t-38 -141q0 -77 38 -142t102.5 -103t141.5 -38t141.5 38z" />
    <glyph glyph-name="omacron" unicode="&#x14d;" horiz-adv-x="966" 
d="M658 1073v-118h-341v118h341zM256 48q-104 61 -165 165t-61 227t61 227t165 165t227 61t227 -61t165 -165t61 -227t-61 -227t-165 -165t-227 -61t-227 61zM624.5 195q64.5 38 102.5 103t38 142q0 76 -38 141t-102.5 103t-141.5 38t-141.5 -38t-102.5 -103t-38 -141
q0 -77 38 -142t102.5 -103t141.5 -38t141.5 38z" />
    <glyph glyph-name="oslash" unicode="&#xf8;" horiz-adv-x="966" 
d="M112 185q-37 55 -57.5 120t-20.5 134q0 123 61 227t165 165t227 61q69 0 134 -20.5t120 -57.5l103 102l121 -120l-103 -103q78 -114 78 -254q0 -123 -61 -227t-165 -165t-227 -61q-138 0 -254 78l-102 -103l-121 121zM487 721q-76 0 -141 -38t-103 -102.5t-38 -141.5
q0 -68 32 -130l380 380q-59 32 -130 32zM629 195q65 38 103 102.5t38 141.5q0 68 -32 130l-380 -381q59 -31 129 -31q77 0 142 38z" />
    <glyph glyph-name="otilde" unicode="&#xf5;" horiz-adv-x="966" 
d="M476 930.5q-40 18.5 -74 53.5q-21 23 -35 18q-7 -2 -14 -14t-10 -31l-170 24q10 65 46 115q38 50 97 69q27 9 56 9q42 0 82 -18.5t73 -54.5q9 -10 18.5 -14.5t15.5 -2.5q7 2 14 14t10 32l169 -23q-9 -69 -45 -115q-39 -53 -96 -71q-27 -9 -56 -9q-41 0 -81 18.5zM256 48
q-104 61 -165 165t-61 227t61 227t165 165t227 61t227 -61t165 -165t61 -227t-61 -227t-165 -165t-227 -61t-227 61zM624.5 195q64.5 38 102.5 103t38 142q0 76 -38 141t-102.5 103t-141.5 38t-141.5 -38t-102.5 -103t-38 -141q0 -77 38 -142t102.5 -103t141.5 -38t141.5 38
z" />
    <glyph glyph-name="oe" unicode="&#x153;" horiz-adv-x="1481" 
d="M256 47q-104 61 -165 165t-61 227t61 227t165 165t227 61q79 0 151 -26t131 -73v86h676v-171h-505v-184h414v-171h-414v-183h505v-171h-676v86q-59 -47 -131 -73t-151 -26q-123 0 -227 61zM624.5 195q64.5 38 102.5 102.5t38 141.5t-38 141.5t-102.5 102.5t-141.5 38
t-141.5 -38t-102.5 -102.5t-38 -141.5t38 -141.5t102.5 -102.5t141.5 -38t141.5 38z" />
    <glyph glyph-name="p" unicode="p" horiz-adv-x="723" 
d="M377 879q86 0 158.5 -42.5t115 -115t42.5 -158.5v-7q0 -98 -53.5 -177.5t-143.5 -115.5l-275 -112v-151h-171v879h327zM498 474.5q25 36.5 25 81.5v7q0 39 -20 72.5t-53.5 53.5t-72.5 20h-156v-374l211 86q41 17 66 53.5z" />
    <glyph glyph-name="thorn" unicode="&#xfe;" horiz-adv-x="723" 
d="M221 1029v-150h156q86 0 158.5 -42.5t115 -115t42.5 -158.5v-7q0 -98 -53.5 -177.5t-143.5 -115.5l-275 -112v-151h-171v1029h171zM498 474.5q25 36.5 25 81.5v7q0 39 -20 72.5t-53.5 53.5t-72.5 20h-156v-374l211 86q41 17 66 53.5z" />
    <glyph glyph-name="q" unicode="q" horiz-adv-x="966" 
d="M210 81.5q-84 63.5 -132 158t-48 203.5q0 123 61 227t165 165t227 61t227 -61t165 -165t61 -227q0 -105 -45 -197t-124 -156t-178 -87l111 -161h-196l-106 156q-104 20 -188 83.5zM624.5 199q64.5 38 102.5 102.5t38 141.5t-38 141.5t-102.5 102.5t-141.5 38t-141.5 -38
t-102.5 -102.5t-38 -141.5t38 -141.5t102.5 -102.5t141.5 -38t141.5 38z" />
    <glyph glyph-name="r" unicode="r" horiz-adv-x="721" 
d="M517 7q-73 34 -118.5 84t-69.5 104l-108 -44v-151h-171v879h327q86 0 158.5 -42.5t115 -115t42.5 -158.5v-7q0 -98 -53.5 -177.5t-143.5 -115.5l-8 -4q19 -43 66.5 -79t132.5 -36v-171q-97 0 -170 34zM498 474.5q25 36.5 25 81.5v7q0 39 -20 72.5t-53.5 53.5t-72.5 20
h-156v-374l211 86q41 17 66 53.5z" />
    <glyph glyph-name="racute" unicode="&#x155;" horiz-adv-x="721" 
d="M457 1279l133 -130l-240 -207l-96 95zM517 7q-73 34 -118.5 84t-69.5 104l-108 -44v-151h-171v879h327q86 0 158.5 -42.5t115 -115t42.5 -158.5v-7q0 -98 -53.5 -177.5t-143.5 -115.5l-8 -4q19 -43 66.5 -79t132.5 -36v-171q-97 0 -170 34zM498 474.5q25 36.5 25 81.5v7
q0 39 -20 72.5t-53.5 53.5t-72.5 20h-156v-374l211 86q41 17 66 53.5z" />
    <glyph glyph-name="rcaron" unicode="&#x159;" horiz-adv-x="721" 
d="M246 1238l133 -111l134 111l109 -131l-188 -157h-109l-189 157zM517 7q-73 34 -118.5 84t-69.5 104l-108 -44v-151h-171v879h327q86 0 158.5 -42.5t115 -115t42.5 -158.5v-7q0 -98 -53.5 -177.5t-143.5 -115.5l-8 -4q19 -43 66.5 -79t132.5 -36v-171q-97 0 -170 34z
M498 474.5q25 36.5 25 81.5v7q0 39 -20 72.5t-53.5 53.5t-72.5 20h-156v-374l211 86q41 17 66 53.5z" />
    <glyph glyph-name="uni0157" unicode="&#x157;" horiz-adv-x="721" 
d="M517 7q-73 34 -118.5 84t-69.5 104l-108 -44v-151h-171v879h327q86 0 158.5 -42.5t115 -115t42.5 -158.5v-7q0 -98 -53.5 -177.5t-143.5 -115.5l-8 -4q19 -43 66.5 -79t132.5 -36v-171q-97 0 -170 34zM498 474.5q25 36.5 25 81.5v7q0 39 -20 72.5t-53.5 53.5t-72.5 20
h-156v-374l211 86q41 17 66 53.5zM357 12l133 -130l-240 -207l-96 95z" />
    <glyph glyph-name="s" unicode="s" horiz-adv-x="704" 
d="M165 12.5q-85 33.5 -152 96.5l-3 3l97 115l4 -3q53 -48 115.5 -73.5t126.5 -25.5q70 0 110.5 27t40.5 74q0 34 -15 55.5t-40.5 36t-74.5 34.5l-13 5l-121 53q-93 36 -141.5 96.5t-48.5 140.5q0 73 40 130.5t110.5 90t159.5 32.5q80 0 155 -29.5t130 -83.5l3 -3l-86 -107
l-3 3q-50 39 -98.5 56.5t-107.5 17.5q-62 0 -98.5 -26t-36.5 -71q0 -30 18 -50.5t45 -34t77 -32.5l122 -53q99 -38 146.5 -97t47.5 -144q0 -78 -42 -138.5t-117.5 -94.5t-171.5 -34q-93 0 -178 33.5z" />
    <glyph glyph-name="sacute" unicode="&#x15b;" horiz-adv-x="704" 
d="M474 1279l133 -130l-240 -207l-96 95zM165 12.5q-85 33.5 -152 96.5l-3 3l97 115l4 -3q53 -48 115.5 -73.5t126.5 -25.5q70 0 110.5 27t40.5 74q0 34 -15 55.5t-40.5 36t-74.5 34.5l-13 5l-121 53q-93 36 -141.5 96.5t-48.5 140.5q0 73 40 130.5t110.5 90t159.5 32.5
q80 0 155 -29.5t130 -83.5l3 -3l-86 -107l-3 3q-50 39 -98.5 56.5t-107.5 17.5q-62 0 -98.5 -26t-36.5 -71q0 -30 18 -50.5t45 -34t77 -32.5l122 -53q99 -38 146.5 -97t47.5 -144q0 -78 -42 -138.5t-117.5 -94.5t-171.5 -34q-93 0 -178 33.5z" />
    <glyph glyph-name="scaron" unicode="&#x161;" horiz-adv-x="704" 
d="M238 1238l133 -111l134 111l109 -131l-188 -157h-109l-189 157zM165 12.5q-85 33.5 -152 96.5l-3 3l97 115l4 -3q53 -48 115.5 -73.5t126.5 -25.5q70 0 110.5 27t40.5 74q0 34 -15 55.5t-40.5 36t-74.5 34.5l-13 5l-121 53q-93 36 -141.5 96.5t-48.5 140.5q0 73 40 130.5
t110.5 90t159.5 32.5q80 0 155 -29.5t130 -83.5l3 -3l-86 -107l-3 3q-50 39 -98.5 56.5t-107.5 17.5q-62 0 -98.5 -26t-36.5 -71q0 -30 18 -50.5t45 -34t77 -32.5l122 -53q99 -38 146.5 -97t47.5 -144q0 -78 -42 -138.5t-117.5 -94.5t-171.5 -34q-93 0 -178 33.5z" />
    <glyph glyph-name="scedilla" unicode="&#x15f;" horiz-adv-x="704" 
d="M637.5 116q-36.5 -58 -102 -93t-151.5 -42l-27 -65q51 -12 76 -35.5t25 -63.5q0 -128 -262 -137l-14 78q77 4 106.5 17t29.5 41q0 22 -22 35.5t-79 20.5l53 112q-72 11 -138 43t-119 82l-3 3l97 115l4 -3q53 -48 115.5 -73.5t126.5 -25.5q70 0 110.5 27t40.5 74
q0 34 -15 55.5t-40.5 36t-74.5 34.5l-13 5l-121 53q-93 36 -141.5 96.5t-48.5 140.5q0 73 40 130.5t110.5 90t159.5 32.5q80 0 155 -29.5t130 -83.5l3 -3l-86 -107l-3 3q-50 39 -98.5 56.5t-107.5 17.5q-62 0 -98.5 -26t-36.5 -71q0 -30 18 -50.5t45 -34t77 -32.5l122 -53
q99 -38 146.5 -97t47.5 -144q0 -72 -36.5 -130z" />
    <glyph glyph-name="uni0219" unicode="&#x219;" horiz-adv-x="704" 
d="M165 12.5q-85 33.5 -152 96.5l-3 3l97 115l4 -3q53 -48 115.5 -73.5t126.5 -25.5q70 0 110.5 27t40.5 74q0 34 -15 55.5t-40.5 36t-74.5 34.5l-13 5l-121 53q-93 36 -141.5 96.5t-48.5 140.5q0 73 40 130.5t110.5 90t159.5 32.5q80 0 155 -29.5t130 -83.5l3 -3l-86 -107
l-3 3q-50 39 -98.5 56.5t-107.5 17.5q-62 0 -98.5 -26t-36.5 -71q0 -30 18 -50.5t45 -34t77 -32.5l122 -53q99 -38 146.5 -97t47.5 -144q0 -78 -42 -138.5t-117.5 -94.5t-171.5 -34q-93 0 -178 33.5zM353 -44l133 -130l-240 -207l-96 95z" />
    <glyph glyph-name="germandbls" unicode="&#xdf;" horiz-adv-x="789" 
d="M420 25l-107 56l80 151l108 -57q13 -7 28 -7t31 8q26 15 28 43v5q0 28 -21 51q-6 5 -36 17q-41 17 -58 27q-49 29 -77 76.5t-28 102.5q0 34 10 61.5t26 55.5q11 18 14 28q7 17 7 36q0 43 -31 77q-33 36 -74 36t-70 -32t-29 -75v-685h-171v685q0 61 25 116.5t70 95
t103 55.5q36 10 74 10q56 0 107.5 -23t91.5 -68q36 -40 55 -90t19 -103q0 -51 -18 -98q-10 -23 -24 -48q-15 -27 -14 -35q1 -11 7.5 -19t14.5 -12q13 -8 31 -14q30 -12 51.5 -23.5t42.5 -31.5q35 -35 54 -80t19 -93q0 -11 -1 -16q-4 -57 -34.5 -105t-80.5 -76
q-54 -30 -114 -30q-57 0 -109 28z" />
    <glyph glyph-name="t" unicode="t" horiz-adv-x="812" 
d="M20 710v170h772v-170h-302v-710h-170v710h-300z" />
    <glyph glyph-name="tbar" unicode="&#x167;" horiz-adv-x="812" 
d="M490 525h178v-171h-178v-354h-170v354h-179v171h179v185h-300v170h772v-170h-302v-185z" />
    <glyph glyph-name="tcaron" unicode="&#x165;" horiz-adv-x="812" 
d="M282 1238l133 -111l134 111l109 -131l-188 -157h-109l-189 157zM20 710v170h772v-170h-302v-710h-170v710h-300z" />
    <glyph glyph-name="uni0163" unicode="&#x163;" horiz-adv-x="812" 
d="M526 -129.5q25 -23.5 25 -63.5q0 -128 -262 -137l-14 78q77 4 106.5 17t29.5 41q0 22 -22 35.5t-79 20.5l66 138h-56v710h-300v170h772v-170h-302v-710l-40 -94q51 -12 76 -35.5z" />
    <glyph glyph-name="uni021B" unicode="&#x21b;" horiz-adv-x="812" 
d="M20 710v170h772v-170h-302v-710h-170v710h-300zM401 -39l133 -130l-240 -207l-96 95z" />
    <glyph glyph-name="u" unicode="u" horiz-adv-x="881" 
d="M244.5 42.5q-89.5 52.5 -142 142t-52.5 195.5v499h171v-499q0 -60 29.5 -110t79.5 -79.5t110 -29.5t110.5 29.5t80 80t29.5 109.5v499h171v-499q0 -106 -53 -195.5t-142.5 -142t-195.5 -52.5t-195.5 52.5z" />
    <glyph glyph-name="uacute" unicode="&#xfa;" horiz-adv-x="881" 
d="M546 1279l133 -130l-240 -207l-96 95zM244.5 42.5q-89.5 52.5 -142 142t-52.5 195.5v499h171v-499q0 -60 29.5 -110t79.5 -79.5t110 -29.5t110.5 29.5t80 80t29.5 109.5v499h171v-499q0 -106 -53 -195.5t-142.5 -142t-195.5 -52.5t-195.5 52.5z" />
    <glyph glyph-name="ucircumflex" unicode="&#xfb;" horiz-adv-x="881" 
d="M389 1223h109l189 -157l-110 -131l-133 111l-134 -111l-109 131zM244.5 42.5q-89.5 52.5 -142 142t-52.5 195.5v499h171v-499q0 -60 29.5 -110t79.5 -79.5t110 -29.5t110.5 29.5t80 80t29.5 109.5v499h171v-499q0 -106 -53 -195.5t-142.5 -142t-195.5 -52.5t-195.5 52.5z
" />
    <glyph glyph-name="udieresis" unicode="&#xfc;" horiz-adv-x="881" 
d="M232 978q-32 32 -32 78q0 45 32 77t77 32t77 -32t32 -77q0 -46 -32 -78t-77 -32t-77 32zM493 978q-32 32 -32 78q0 45 32 77t77 32t77 -32t32 -77q0 -46 -32 -78t-77 -32t-77 32zM244.5 42.5q-89.5 52.5 -142 142t-52.5 195.5v499h171v-499q0 -60 29.5 -110t79.5 -79.5
t110 -29.5t110.5 29.5t80 80t29.5 109.5v499h171v-499q0 -106 -53 -195.5t-142.5 -142t-195.5 -52.5t-195.5 52.5z" />
    <glyph glyph-name="ugrave" unicode="&#xf9;" horiz-adv-x="881" 
d="M393 1287l204 -242l-96 -95l-240 207zM244.5 42.5q-89.5 52.5 -142 142t-52.5 195.5v499h171v-499q0 -60 29.5 -110t79.5 -79.5t110 -29.5t110.5 29.5t80 80t29.5 109.5v499h171v-499q0 -106 -53 -195.5t-142.5 -142t-195.5 -52.5t-195.5 52.5z" />
    <glyph glyph-name="uhungarumlaut" unicode="&#x171;" horiz-adv-x="881" 
d="M405 1283l133 -130l-240 -207l-96 95zM671 1283l133 -130l-240 -207l-96 95zM244.5 42.5q-89.5 52.5 -142 142t-52.5 195.5v499h171v-499q0 -60 29.5 -110t79.5 -79.5t110 -29.5t110.5 29.5t80 80t29.5 109.5v499h171v-499q0 -106 -53 -195.5t-142.5 -142t-195.5 -52.5
t-195.5 52.5z" />
    <glyph glyph-name="umacron" unicode="&#x16b;" horiz-adv-x="881" 
d="M620 1066v-118h-341v118h341zM244.5 42.5q-89.5 52.5 -142 142t-52.5 195.5v499h171v-499q0 -60 29.5 -110t79.5 -79.5t110 -29.5t110.5 29.5t80 80t29.5 109.5v499h171v-499q0 -106 -53 -195.5t-142.5 -142t-195.5 -52.5t-195.5 52.5z" />
    <glyph glyph-name="uogonek" unicode="&#x173;" horiz-adv-x="881" 
d="M831 380q0 -95 -43 -178t-118 -137.5t-167 -69.5q-76 -63 -76 -123q0 -30 20 -45.5t46 -15.5q21 0 38.5 5.5t27.5 13.5l41 -87q-26 -21 -68.5 -34t-85.5 -13q-66 0 -108 34t-42 98q0 51 28.5 94t65.5 71q-95 12 -172.5 67t-122.5 139t-45 181v499h171v-499
q0 -60 29.5 -110t79.5 -79.5t110 -29.5t110.5 29.5t80 80t29.5 109.5v499h171v-499z" />
    <glyph glyph-name="uring" unicode="&#x16f;" horiz-adv-x="881" 
d="M348.5 961q-37.5 22 -59.5 60t-22 83q0 44 22 82t59.5 60t82.5 22q44 0 82 -22t60 -60t22 -82q0 -45 -22 -83t-60 -60t-82 -22q-45 0 -82.5 22zM463.5 1071.5q13.5 13.5 13.5 32.5t-13.5 32.5t-32.5 13.5t-32.5 -13.5t-13.5 -32.5t13.5 -32.5t32.5 -13.5t32.5 13.5z
M244.5 42.5q-89.5 52.5 -142 142t-52.5 195.5v499h171v-499q0 -60 29.5 -110t79.5 -79.5t110 -29.5t110.5 29.5t80 80t29.5 109.5v499h171v-499q0 -106 -53 -195.5t-142.5 -142t-195.5 -52.5t-195.5 52.5z" />
    <glyph glyph-name="v" unicode="v" horiz-adv-x="829" 
d="M191 879l224 -626l223 626h181l-314 -881h-181l-314 881h181z" />
    <glyph glyph-name="w" unicode="w" horiz-adv-x="1184" 
d="M182 879l240 -636l79 210l-161 426h183l69 -184l69 184h183l-161 -426l79 -210l240 636h182l-331 -879h-181l-80 211l-80 -211h-181l-331 879h182z" />
    <glyph glyph-name="wacute" unicode="&#x1e83;" horiz-adv-x="1184" 
d="M679 1279l133 -130l-240 -207l-96 95zM182 879l240 -636l79 210l-161 426h183l69 -184l69 184h183l-161 -426l79 -210l240 636h182l-331 -879h-181l-80 211l-80 -211h-181l-331 879h182z" />
    <glyph glyph-name="wcircumflex" unicode="&#x175;" horiz-adv-x="1184" 
d="M542 1223h109l189 -157l-110 -131l-133 111l-134 -111l-109 131zM182 879l240 -636l79 210l-161 426h183l69 -184l69 184h183l-161 -426l79 -210l240 636h182l-331 -879h-181l-80 211l-80 -211h-181l-331 879h182z" />
    <glyph glyph-name="wdieresis" unicode="&#x1e85;" horiz-adv-x="1184" 
d="M384 978q-32 32 -32 78q0 45 32 77t77 32t77 -32t32 -77q0 -46 -32 -78t-77 -32t-77 32zM645 978q-32 32 -32 78q0 45 32 77t77 32t77 -32t32 -77q0 -46 -32 -78t-77 -32t-77 32zM182 879l240 -636l79 210l-161 426h183l69 -184l69 184h183l-161 -426l79 -210l240 636
h182l-331 -879h-181l-80 211l-80 -211h-181l-331 879h182z" />
    <glyph glyph-name="wgrave" unicode="&#x1e81;" horiz-adv-x="1184" 
d="M533 1287l204 -242l-96 -95l-240 207zM182 879l240 -636l79 210l-161 426h183l69 -184l69 184h183l-161 -426l79 -210l240 636h182l-331 -879h-181l-80 211l-80 -211h-181l-331 879h182z" />
    <glyph glyph-name="x" unicode="x" horiz-adv-x="892" 
d="M0 879h216l230 -299l230 299h216l-338 -439l338 -440h-215l-231 300l-231 -300h-215l338 440z" />
    <glyph glyph-name="y" unicode="y" horiz-adv-x="753" 
d="M0 878h192l185 -359l184 359h192l-291 -566v-312h-171v312z" />
    <glyph glyph-name="yacute" unicode="&#xfd;" horiz-adv-x="753" 
d="M495 1279l133 -130l-240 -207l-96 95zM0 878h192l185 -359l184 359h192l-291 -566v-312h-171v312z" />
    <glyph glyph-name="ycircumflex" unicode="&#x177;" horiz-adv-x="753" 
d="M313 1223h109l189 -157l-110 -131l-133 111l-134 -111l-109 131zM0 878h192l185 -359l184 359h192l-291 -566v-312h-171v312z" />
    <glyph glyph-name="ydieresis" unicode="&#xff;" horiz-adv-x="753" 
d="M166 978q-32 32 -32 78q0 45 32 77t77 32t77 -32t32 -77q0 -46 -32 -78t-77 -32t-77 32zM427 978q-32 32 -32 78q0 45 32 77t77 32t77 -32t32 -77q0 -46 -32 -78t-77 -32t-77 32zM0 878h192l185 -359l184 359h192l-291 -566v-312h-171v312z" />
    <glyph glyph-name="ygrave" unicode="&#x1ef3;" horiz-adv-x="753" 
d="M305 1287l204 -242l-96 -95l-240 207zM0 878h192l185 -359l184 359h192l-291 -566v-312h-171v312z" />
    <glyph glyph-name="z" unicode="z" horiz-adv-x="740" 
d="M445 709h-352v170h597v-111l-398 -597h395v-171h-647v101z" />
    <glyph glyph-name="zacute" unicode="&#x17a;" horiz-adv-x="740" 
d="M546 1279l133 -130l-240 -207l-96 95zM445 709h-352v170h597v-111l-398 -597h395v-171h-647v101z" />
    <glyph glyph-name="zcaron" unicode="&#x17e;" horiz-adv-x="740" 
d="M276 1238l133 -111l134 111l109 -131l-188 -157h-109l-189 157zM445 709h-352v170h597v-111l-398 -597h395v-171h-647v101z" />
    <glyph glyph-name="zdotaccent" unicode="&#x17c;" horiz-adv-x="740" 
d="M316 978q-32 32 -32 78q0 45 32 77t77 32t77 -32t32 -77q0 -46 -32 -78t-77 -32t-77 32zM445 709h-352v170h597v-111l-398 -597h395v-171h-647v101z" />
    <glyph glyph-name="zero" unicode="0" horiz-adv-x="794" 
d="M217 30.5q-82 62.5 -129.5 170t-47.5 236.5q0 130 47.5 237.5t129.5 170t180 62.5t180 -62.5t129.5 -170t47.5 -237.5q0 -129 -47.5 -236.5t-129.5 -170t-180 -62.5t-180 62.5zM490 180q43 41 68.5 109.5t25.5 147.5q0 80 -25.5 148.5t-68.5 109.5t-93 41t-92.5 -41
t-68 -109.5t-25.5 -148.5q0 -79 25.5 -147.5t68 -109.5t92.5 -41t93 41z" />
    <glyph glyph-name="one" unicode="1" horiz-adv-x="311" 
d="M241 882v-879h-171v879h171z" />
    <glyph glyph-name="two" unicode="2" horiz-adv-x="770" 
d="M54 160q228 103 347 235q48 53 80 112.5t32 110.5q0 22 -7 40q-7 19 -24 35.5t-40 26.5q-40 17 -87 17q-48 0 -88 -18t-58 -53l-151 80q42 79 123.5 120t175.5 41q84 0 153 -30q56 -25 97 -67t60 -94q17 -47 17 -98q0 -96 -48.5 -183.5t-107.5 -153.5q-56 -63 -124 -113
h316v-171h-670v161z" />
    <glyph glyph-name="three" unicode="3" horiz-adv-x="685" 
d="M140 20q-81 44 -120 118l151 80q16 -29 55 -50t92 -21q42 0 78 14.5t57 38.5t21 52t-21 52t-57 38.5t-78 14.5h-91v171h91q42 0 78 14.5t57 38.5t21 52t-21 52t-57 38.5t-78 14.5q-53 0 -92 -21t-55 -51l-151 80q39 74 120 118t178 44q89 0 164 -37t119 -100t44 -138
q0 -54 -24 -103.5t-67 -87.5q43 -38 67 -87t24 -103q0 -75 -44 -138.5t-119 -100.5t-164 -37q-97 0 -178 44z" />
    <glyph glyph-name="four" unicode="4" horiz-adv-x="794" 
d="M30 209v153l411 515h193v-497h120v-171h-120v-213h-171v213h-433zM463 632l-201 -252h201v252z" />
    <glyph glyph-name="five" unicode="5" horiz-adv-x="714" 
d="M160 10q-81 44 -120 118l151 80q16 -30 54.5 -50.5t92.5 -20.5q65 0 115 28t50 105q0 50 -47 77.5t-109 27.5h-4q-38 0 -78 -13.5t-68 -41.5l-149 32l46 529h536v-171h-380l-15 -179q52 15 108 15q95 0 170.5 -35.5t118 -98.5t42.5 -142q0 -90 -42 -159t-118.5 -107
t-175.5 -38q-97 0 -178 44z" />
    <glyph glyph-name="six" unicode="6" horiz-adv-x="794" 
d="M290 4.5q-67 31.5 -113 85.5q-64 66 -100.5 157.5t-36.5 195.5q0 127 53.5 235t145.5 171t200 63q76 0 145.5 -32t125.5 -92l-126 -116q-31 34 -68 51.5t-77 17.5q-52 0 -97.5 -28.5t-77.5 -78t-45 -112.5q45 36 100 56t115 20q90 0 165.5 -42t120 -114t44.5 -157
t-44.5 -156.5t-120 -113.5t-165.5 -42q-77 0 -144 31.5zM516.5 164.5q35.5 19.5 56 51.5t20.5 69q0 38 -21.5 71t-58 52t-79.5 19t-80 -19t-58.5 -52t-21.5 -71q0 -48 34 -87q59 -54 131 -54q42 1 77.5 20.5z" />
    <glyph glyph-name="seven" unicode="7" horiz-adv-x="703" 
d="M299 383.5q62 181.5 137 322.5h-396v171h613v-137q-32 -49 -84 -149t-106.5 -259t-74.5 -336h-172q21 206 83 387.5z" />
    <glyph glyph-name="eight" unicode="8" horiz-adv-x="708" 
d="M191.5 6q-74.5 38 -118 102t-43.5 140q0 61 28.5 115t79.5 93q-34 37 -52.5 84.5t-18.5 99.5q0 76 38.5 140t104.5 102t144 38t144 -38t104.5 -102t38.5 -140q0 -52 -18.5 -99.5t-52.5 -84.5q51 -39 79.5 -93t28.5 -115q0 -76 -43.5 -140t-118 -102t-162.5 -38t-162.5 38
zM436.5 563q34.5 32 34.5 77t-34.5 77t-82.5 32t-82 -32t-34 -77t34 -77t82 -32t82.5 32zM430.5 154q35.5 15 56.5 40t21 54t-21 54t-56.5 40t-76.5 15t-76 -15t-56 -40t-21 -54t21 -54t56 -40t76 -15t76.5 15z" />
    <glyph glyph-name="nine" unicode="9" horiz-adv-x="794" 
d="M210 13.5q-70 32.5 -126 92.5l125 115q31 -33 68.5 -51t77.5 -18q52 0 97 28.5t77.5 78t45.5 112.5q-45 -36 -100.5 -55.5t-114.5 -19.5q-90 0 -165.5 42t-120 113.5t-44.5 156.5t44.5 156.5t120.5 114t165 42.5q65 0 124.5 -23t106.5 -67q10 -9 28 -29q63 -66 99 -157
t36 -194q0 -127 -54 -235t-145.5 -171.5t-199.5 -63.5q-75 0 -145 32.5zM442 487q38 20 59 55q18 32 18 66q0 50 -33 87q-59 54 -131 54v1q-42 -1 -77.5 -20.5t-56 -51.5t-20.5 -70t21.5 -70.5t58 -51.5t79.5 -19q44 0 82 20z" />
    <glyph glyph-name="asterisk" unicode="*" horiz-adv-x="760" 
d="M240 497l-190 75l63 159l182 -72v230h170v-230l182 72l63 -159l-190 -75l129 -157l-131 -108l-138 167l-138 -167l-131 108z" />
    <glyph glyph-name="backslash" unicode="\" horiz-adv-x="685" 
d="M210 983l425 -1155l-161 -59l-424 1155z" />
    <glyph glyph-name="periodcentered" unicode="&#xb7;" horiz-adv-x="318" 
d="M82 372q-32 32 -32 77t32 77t77 32t77 -32t32 -77t-32 -77t-77 -32t-77 32z" />
    <glyph glyph-name="bullet" unicode="&#x2022;" horiz-adv-x="400" 
d="M124.5 312q-34.5 20 -54.5 54.5t-20 75.5t20 75.5t54.5 54.5t75.5 20t75.5 -20t54.5 -54.5t20 -75.5t-20 -75.5t-54.5 -54.5t-75.5 -20t-75.5 20z" />
    <glyph glyph-name="colon" unicode=":" horiz-adv-x="318" 
d="M82 476q-32 32 -32 77t32 77t77 32t77 -32t32 -77t-32 -77t-77 -32t-77 32zM82 30q-32 32 -32 77q0 46 32 78t77 32t77 -32t32 -78q0 -45 -32 -77t-77 -32t-77 32z" />
    <glyph glyph-name="comma" unicode="," horiz-adv-x="320" 
d="M148 6q-41 4 -69.5 35t-28.5 73q0 46 32 78t77 32q43 0 74 -29t35 -71q2 -16 2 -26q0 -51 -28 -109.5t-70 -114.5h-118q61 70 94 132z" />
    <glyph glyph-name="ellipsis" unicode="&#x2026;" horiz-adv-x="600" 
d="M236 185q32 -32 32 -78q0 -45 -32 -77t-77 -32t-77 32t-32 77q0 46 32 78t77 32t77 -32z" />
    <glyph glyph-name="exclam" unicode="!" horiz-adv-x="318" 
d="M244 886v-588h-170v588h170zM82 41.5q-32 31.5 -32 77.5q0 45 32 77t77 32t77 -32t32 -77q0 -46 -32 -77.5t-77 -31.5t-77 31.5z" />
    <glyph glyph-name="exclamdown" unicode="&#xa1;" horiz-adv-x="318" 
d="M82 690q-32 32 -32 77q0 46 32 77.5t77 31.5t77 -31.5t32 -77.5q0 -45 -32 -77t-77 -32t-77 32zM244 588v-588h-170v588h170z" />
    <glyph glyph-name="numbersign" unicode="#" horiz-adv-x="797" 
d="M50 246v128h122l36 135h-137v128h171l65 243h129l-66 -243h151l66 243h128l-66 -243h98v-128h-132l-36 -135h136v-128h-170l-67 -249h-128l67 249h-151l-67 -249h-128l67 249h-88zM487 509h-151l-36 -135h151z" />
    <glyph glyph-name="period" unicode="." horiz-adv-x="318" 
d="M82 30q-32 32 -32 77q0 46 32 78t77 32t77 -32t32 -78q0 -45 -32 -77t-77 -32t-77 32z" />
    <glyph glyph-name="question" unicode="?" horiz-adv-x="665" 
d="M216 345q0 42 17 77t40.5 61t60.5 59q42 38 62 63t20 54q0 42 -29.5 65.5t-75.5 23.5q-41 0 -75 -16.5t-71 -49.5l-115 106q53 60 123.5 94t151.5 34q83 0 148.5 -26t103.5 -77.5t38 -127.5q0 -44 -16 -78.5t-39 -60t-60 -58.5q-50 -44 -75 -78.5t-25 -81.5q0 -11 1 -17
h-182q-3 18 -3 34zM239 41.5q-32 31.5 -32 77.5q0 45 32 77t77 32q46 0 78 -32t32 -77q0 -46 -32 -77.5t-78 -31.5q-45 0 -77 31.5z" />
    <glyph glyph-name="questiondown" unicode="&#xbf;" horiz-adv-x="665" 
d="M271 694q-32 32 -32 77q0 46 32 77.5t78 31.5q45 0 77 -31.5t32 -77.5q0 -45 -32 -77t-77 -32q-46 0 -78 32zM191.5 0q-65.5 26 -103.5 77.5t-38 127.5q0 44 16 78.5t39 60t60 58.5q50 44 75 78.5t25 81.5q0 11 -1 17h182q3 -18 3 -34q0 -42 -17 -77t-40.5 -61t-60.5 -59
q-42 -38 -62 -63t-20 -54q0 -42 29.5 -65.5t75.5 -23.5q41 0 75 16.5t71 49.5l115 -106q-53 -60 -123.5 -94t-151.5 -34q-83 0 -148.5 26z" />
    <glyph glyph-name="quotedbl" unicode="&#x22;" horiz-adv-x="570" 
d="M148 685q-41 4 -69.5 35t-28.5 73q0 45 32 77t77 32q43 0 74 -28.5t35 -70.5q2 -16 2 -26q0 -51 -28 -109.5t-70 -114.5h-118q63 72 94 132zM398 685q-41 4 -69 35t-28 73q0 45 31.5 77t77.5 32q43 0 73.5 -28.5t34.5 -70.5q2 -9 2 -27q0 -91 -97 -223h-118q65 74 93 132
z" />
    <glyph glyph-name="quotesingle" unicode="'" horiz-adv-x="319" 
d="M147 685q-41 4 -69 35t-28 73q0 45 31.5 77t77.5 32q43 0 73.5 -28.5t34.5 -70.5q2 -9 2 -27q0 -91 -97 -223h-118q65 73 93 132z" />
    <glyph glyph-name="semicolon" unicode=";" horiz-adv-x="320" 
d="M83 476q-32 32 -32 77t32 77t77 32t77 -32t32 -77t-32 -77t-77 -32t-77 32zM148 -34q-41 5 -69.5 36t-28.5 73q0 45 32 77t77 32q43 0 74 -28.5t35 -70.5q2 -16 2 -26q0 -51 -28 -109.5t-70 -114.5h-118q63 71 94 131z" />
    <glyph glyph-name="slash" unicode="/" horiz-adv-x="685" 
d="M475 980l160 -59l-424 -1155l-161 59z" />
    <glyph glyph-name="underscore" unicode="_" horiz-adv-x="743" 
d="M693 170v-171h-643v171h643z" />
    <glyph glyph-name="braceleft" unicode="{" horiz-adv-x="540" 
d="M342 -112.5q-68 39.5 -108 107.5t-40 148v53q0 34 -17 62.5t-45.5 45.5t-61.5 17h-20v181q52 0 88.5 36.5t36.5 88.5v52q0 80 39.5 148t107.5 108t148 40h20v-171h-20q-52 0 -88.5 -36.5t-36.5 -88.5v-52q0 -59 -22 -112.5t-62 -94.5q49 -41 76.5 -99.5t27.5 -124.5v-53
q0 -52 36.5 -88.5t88.5 -36.5v-170q-80 0 -148 39.5z" />
    <glyph glyph-name="braceright" unicode="}" horiz-adv-x="540" 
d="M70 21q52 0 88.5 36.5t36.5 88.5v52q0 59 22 112.5t62 94.5q-49 41 -76.5 99.5t-27.5 124.5v53q0 52 -36.5 88.5t-88.5 36.5v170q80 0 148 -39.5t108 -107.5t40 -148v-53q0 -34 17 -62.5t45.5 -45.5t61.5 -17h20v-181q-52 0 -88.5 -36.5t-36.5 -88.5v-52
q0 -80 -39.5 -148t-107.5 -108t-148 -40h-20v171h20z" />
    <glyph glyph-name="bracketleft" unicode="[" horiz-adv-x="439" 
d="M389 977v-171h-168v-827h168v-171h-339v1169h339z" />
    <glyph glyph-name="bracketright" unicode="]" horiz-adv-x="439" 
d="M218 -20v827h-168v171h339v-1169h-339v171h168z" />
    <glyph glyph-name="parenleft" unicode="(" horiz-adv-x="464" 
d="M111.5 90q-61.5 157 -61.5 327q0 169 61.5 326t177.5 282l125 -116q-94 -101 -143.5 -228t-49.5 -264q0 -138 49.5 -265t143.5 -227l-125 -117q-116 125 -177.5 282z" />
    <glyph glyph-name="parenright" unicode=")" horiz-adv-x="464" 
d="M193.5 154q49.5 127 49.5 264q0 138 -49.5 265t-143.5 227l125 117q116 -125 177.5 -282t61.5 -327q0 -169 -61.5 -326t-177.5 -282l-125 116q94 101 143.5 228z" />
    <glyph glyph-name="emdash" unicode="&#x2014;" horiz-adv-x="883" 
d="M833 525v-171h-783v171h783z" />
    <glyph glyph-name="endash" unicode="&#x2013;" horiz-adv-x="727" 
d="M677 525v-171h-627v171h627z" />
    <glyph glyph-name="hyphen" unicode="-" horiz-adv-x="627" 
d="M577 525v-171h-527v171h527z" />
    <glyph glyph-name="guillemotleft" unicode="&#xab;" horiz-adv-x="1153" 
d="M577 808l97 -140l-326 -228l326 -229l-97 -140l-527 369zM1006 808l97 -140l-326 -228l326 -229l-97 -140l-527 369z" />
    <glyph glyph-name="guillemotright" unicode="&#xbb;" horiz-adv-x="1160" 
d="M383 429l-318 240l101 137l515 -387l-539 -350l-92 143zM812 415l-318 240l101 136l515 -386l-539 -350l-93 143z" />
    <glyph glyph-name="guilsinglleft" unicode="&#x2039;" horiz-adv-x="724" 
d="M577 808l97 -140l-326 -228l326 -229l-97 -140l-527 369z" />
    <glyph glyph-name="guilsinglright" unicode="&#x203a;" horiz-adv-x="731" 
d="M383 429l-318 240l101 137l515 -387l-539 -350l-92 143z" />
    <glyph glyph-name="quotedblbase" unicode="&#x201e;" horiz-adv-x="600" 
d="M270 98q0 -51 -28 -109.5t-70 -114.5h-118q61 70 94 132q-41 4 -69.5 35t-28.5 73q0 46 32 78t77 32q43 0 74 -29t35 -71q2 -16 2 -26z" />
    <glyph glyph-name="quotedblleft" unicode="&#x201c;" horiz-adv-x="570" 
d="M86.5 559.5q-30.5 28.5 -34.5 70.5q-2 9 -2 27q0 91 97 223h118q-64 -73 -93 -132q41 -4 69 -35t28 -73q0 -45 -31.5 -77t-77.5 -32q-43 0 -73.5 28.5zM337 559.5q-31 28.5 -35 70.5q-2 16 -2 26q0 51 28 109.5t70 114.5h118q-63 -72 -94 -132q41 -4 69.5 -35t28.5 -73
q0 -45 -32 -77t-77 -32q-43 0 -74 28.5z" />
    <glyph glyph-name="quotedblright" unicode="&#x201d;" horiz-adv-x="600" 
d="M148 685q-41 4 -69.5 35t-28.5 73q0 45 32 77t77 32q43 0 74 -28.5t35 -70.5q2 -16 2 -26q0 -51 -28 -109.5t-70 -114.5h-118q63 72 94 132zM398 685q-41 4 -69 35t-28 73q0 45 31.5 77t77.5 32q43 0 73.5 -28.5t34.5 -70.5q2 -9 2 -27q0 -91 -97 -223h-118q65 74 93 132
z" />
    <glyph glyph-name="quoteleft" unicode="&#x2018;" horiz-adv-x="319" 
d="M86.5 559.5q-30.5 28.5 -34.5 70.5q-2 9 -2 27q0 91 97 223h118q-64 -73 -93 -132q41 -4 69 -35t28 -73q0 -45 -31.5 -77t-77.5 -32q-43 0 -73.5 28.5z" />
    <glyph glyph-name="quoteright" unicode="&#x2019;" horiz-adv-x="320" 
d="M148 685q-41 4 -69.5 35t-28.5 73q0 45 32 77t77 32q43 0 74 -28.5t35 -70.5q2 -16 2 -26q0 -51 -28 -109.5t-70 -114.5h-118q63 72 94 132z" />
    <glyph glyph-name="quotesinglbase" unicode="&#x201a;" horiz-adv-x="600" 
d="M148 6q-41 4 -69.5 35t-28.5 73q0 46 32 78t77 32q43 0 74 -29t35 -71q2 -16 2 -26q0 -51 -28 -109.5t-70 -114.5h-118q61 70 94 132z" />
    <glyph glyph-name="cent" unicode="&#xa2;" horiz-adv-x="700" 
d="M194 127.5q-67 49.5 -105.5 123.5t-38.5 159t38.5 159.5t105.5 124t149 63.5v98h105v-96q55 -7 105 -31.5t91 -63.5l-118 -123q-33 32 -78 44v-349q46 12 81 47l121 -120q-41 -41 -92.5 -67t-109.5 -34v-135h-105v137q-82 14 -149 63.5zM255 516.5q-34 -46.5 -34 -105.5
t34 -106t88 -65v341q-54 -18 -88 -64.5z" />
    <glyph glyph-name="dollar" unicode="$" horiz-adv-x="764" 
d="M177.5 23.5q-69.5 32.5 -124.5 84.5l-3 3l97 115l4 -4q53 -47 115.5 -72.5t126.5 -25.5q70 0 110.5 27t40.5 74q0 34 -15 55.5t-40.5 36t-74.5 34.5l-13 5l-121 53q-93 36 -141.5 96.5t-48.5 140.5q0 93 64 159.5t169 86.5v98h134v-95q65 -9 124 -37t104 -72l3 -3
l-86 -107l-3 3q-50 39 -98.5 56.5t-107.5 17.5q-62 0 -98.5 -26t-36.5 -72q0 -30 18 -50.5t46 -34t76 -31.5l122 -53q99 -38 146.5 -97t47.5 -144q0 -68 -32 -123t-90 -91t-135 -48v-133h-134v132q-76 9 -145.5 41.5z" />
    <glyph glyph-name="Euro" unicode="&#x20ac;" horiz-adv-x="804" 
d="M369 23.5q-74 38.5 -129 107t-82 155.5h-108v92h89q-4 40 -4 60l1 25h-86v92h98q22 96 77.5 172.5t133.5 120t167 43.5q61 0 118 -21t106 -61l-107 -132q-53 44 -117 44q-66 0 -119.5 -45.5t-80.5 -120.5h288v-92h-307q-1 -8 -1 -25q0 -28 5 -60h303v-92h-273
q30 -60 79 -95t106 -35q63 0 119 45l109 -131q-50 -41 -108.5 -63t-119.5 -22q-83 0 -157 38.5z" />
    <glyph glyph-name="sterling" unicode="&#xa3;" horiz-adv-x="791" 
d="M168 207q32 16 50 45.5t15 61.5l-1 3q0 4 -2 10l-7 30h-173v107h149l-24 102q-4 21 -4 48q0 52 18 101t52 89q41 49 99.5 76t123.5 27q94 0 170 -54t107 -142l-161 -56q-13 37 -45 59.5t-71 22.5q-27 0 -51.5 -11.5t-41.5 -32.5q-29 -34 -29 -79q0 -12 1 -18l31 -132h245
v-107h-221q2 -5 4 -19v-7q1 -9 1 -27q0 -43 -14 -85t-40 -77h323v-171h-608v187z" />
    <glyph glyph-name="yen" unicode="&#xa5;" horiz-adv-x="853" 
d="M144 135v105h197v42h-197v106h159l-253 492h192l184 -358l185 358h192l-254 -492h159v-106h-196v-42h196v-105h-196v-132h-171v132h-197z" />
    <glyph glyph-name="plus" unicode="+" horiz-adv-x="710" 
d="M50 364v171h220v220h170v-220h220v-171h-220v-220h-170v220h-220z" />
    <glyph glyph-name="equal" unicode="=" horiz-adv-x="710" 
d="M660 699v-171h-610v171h610zM660 397v-171h-610v171h610z" />
    <glyph glyph-name="greater" unicode="&#x3e;" horiz-adv-x="731" 
d="M383 429l-318 240l101 137l515 -387l-539 -350l-92 143z" />
    <glyph glyph-name="less" unicode="&#x3c;" horiz-adv-x="724" 
d="M577 808l97 -140l-326 -228l326 -229l-97 -140l-527 369z" />
    <glyph glyph-name="asciitilde" unicode="~" horiz-adv-x="795" 
d="M563 245q-53 0 -104 25t-93 72q-17 19 -35.5 29.5t-35.5 10.5q-6 0 -14 -2q-20 -6 -35 -24q-21 -27 -28 -68l-168 30q15 85 63 145t121 82q32 8 60 8q54 0 106 -25t94 -73q36 -39 70 -39q4 0 14 2q23 6 39.5 31t22.5 62l168 -29q-14 -86 -61 -145q-44 -57 -112 -81
q-6 -2 -9 -2q-31 -9 -63 -9z" />
    <glyph glyph-name="percent" unicode="%" horiz-adv-x="886" 
d="M133.5 531.5q-45.5 26.5 -72 72t-26.5 99.5t26.5 99.5t72 72.5t99.5 27t99.5 -27t72.5 -72.5t27 -99.5t-27 -99.5t-72.5 -72t-99.5 -26.5t-99.5 26.5zM886 877l-672 -883h-214l672 883h214zM253 683.5q8 8.5 8 19.5q0 12 -8 20t-20 8q-11 0 -19.5 -8t-8.5 -20
q0 -11 8.5 -19.5t19.5 -8.5q12 0 20 8.5zM555.5 -2.5q-45.5 26.5 -72.5 72t-27 99.5t27 99.5t72.5 72.5t99.5 27t99.5 -27t72 -72.5t26.5 -99.5t-26.5 -99.5t-72 -72t-99.5 -26.5t-99.5 26.5zM674.5 149.5q8.5 8.5 8.5 19.5q0 12 -8.5 20t-19.5 8q-12 0 -20 -8t-8 -20
q0 -11 8 -19.5t20 -8.5q11 0 19.5 8.5z" />
    <glyph glyph-name="at" unicode="@" horiz-adv-x="840" 
d="M258 -65q-96 56 -152 152t-56 210v279q0 113 56 209t152 152.5t210 56.5q87 0 161 -43.5t117.5 -117.5t43.5 -161v-515h-134l-29 36q-59 -39 -127 -39q-66 0 -122.5 36.5t-89.5 98.5t-33 135q0 74 33 136t89.5 98.5t122.5 36.5q65 0 119 -34v11q0 41 -20.5 75.5t-55 55
t-75.5 20.5q-67 0 -124 -33.5t-90 -90t-33 -123.5v-279q0 -67 33 -123.5t90 -90t124 -33.5q46 0 88 16t76 46l114 -127q-58 -52 -129.5 -79t-148.5 -27q-114 0 -210 56zM552 353.5q22 29.5 22 70.5t-22 71t-52 30q-31 0 -53 -30t-22 -71t22 -70.5t53 -29.5q30 0 52 29.5z
" />
    <glyph glyph-name="ampersand" unicode="&#x26;" horiz-adv-x="905" 
d="M376 -11q-88 0 -163 37t-119 100.5t-44 138.5q0 55 24 104t67 86q-43 38 -67 87t-24 104q0 75 44 138t118.5 100t163.5 37q97 0 178 -44t121 -118l-151 -80q-16 30 -55.5 51t-92.5 21q-41 0 -77 -14.5t-57 -38.5t-21 -52t21 -52t57 -38.5t77 -14.5h499v-171h-190v-475
h-171v119q-66 -25 -138 -25zM458.5 176q36.5 16 55.5 41v153h-138q-41 0 -77 -14.5t-57 -38.5t-21 -52t21 -52t57 -38.5t77 -14.5q46 0 82.5 16z" />
    <glyph glyph-name="paragraph" unicode="&#xb6;" horiz-adv-x="982" 
d="M247 263q-90 36 -143.5 115.5t-53.5 177.5v7q0 86 42.5 158.5t115 115t158.5 42.5h327v-879h-171v151zM932 879v-879h-171v879h171z" />
    <glyph glyph-name="copyright" unicode="&#xa9;" horiz-adv-x="1006" 
d="M276 51q-104 61 -165 165t-61 227t61 227t165 165t227 61t227 -61t165 -165t61 -227t-61 -227t-165 -165t-227 -61t-227 61zM671.5 150.5q77.5 45.5 123 123t45.5 169.5q0 91 -45.5 168.5t-123 123t-168.5 45.5t-168.5 -45.5t-123 -123t-45.5 -168.5q0 -92 45.5 -169.5
t123 -123t168.5 -45.5t168.5 45.5zM406.5 265.5q-47.5 27.5 -75 74.5t-27.5 103t27.5 103t75 75t103.5 28q49 0 92.5 -22t72.5 -62l-62 -46q-19 25 -45.5 38.5t-57.5 13.5q-53 0 -90.5 -37.5t-37.5 -90.5t37.5 -90.5t90.5 -37.5q55 0 93 40l57 -53q-29 -31 -68.5 -47.5
t-81.5 -16.5q-56 0 -103.5 27.5z" />
    <glyph glyph-name="registered" unicode="&#xae;" horiz-adv-x="557" 
d="M164.5 473q-52.5 31 -83.5 83.5t-31 114.5t31 114.5t83.5 83t114.5 30.5t114 -30.5t83 -83t31 -114.5t-31 -114.5t-83.5 -83.5t-113.5 -31q-62 0 -114.5 31zM367.5 518q40.5 24 64 64.5t23.5 88.5t-23.5 88.5t-64 64t-88.5 23.5t-88.5 -23.5t-64.5 -64t-24 -88.5
t24 -88.5t64.5 -64.5t88.5 -24t88.5 24zM283 793q37 0 62.5 -25.5t25.5 -62.5v-2q0 -24 -12.5 -45t-33.5 -33l51 -77h-57l-39 59l-40 -17v-42h-48v245h91zM317 680q7 10 7 23v2q0 17 -12 29t-29 12h-43v-104l59 23q11 5 18 15z" />
    <glyph glyph-name="trademark" unicode="&#x2122;" horiz-adv-x="670" 
d="M50 823v57h256v-57h-100v-234h-56v234h-100zM396 880l83 -211l82 211h59v-291h-56v144l-56 -144h-59l-56 144v-144h-56v291h59z" />
    <glyph glyph-name="degree" unicode="&#xb0;" horiz-adv-x="428" 
d="M131.5 674q-37.5 22 -59.5 60t-22 83q0 44 22 82t59.5 60t82.5 22q44 0 82 -22t60 -60t22 -82q0 -45 -22 -83t-60 -60t-82 -22q-45 0 -82.5 22zM246.5 784.5q13.5 13.5 13.5 32.5t-13.5 32.5t-32.5 13.5t-32.5 -13.5t-13.5 -32.5t13.5 -32.5t32.5 -13.5t32.5 13.5z" />
    <glyph glyph-name="bar" unicode="|" horiz-adv-x="271" 
d="M221 1097v-1331h-171v1331h171z" />
    <glyph glyph-name="asciicircum" unicode="^" horiz-adv-x="615" 
d="M231 877h153l181 -313l-147 -86l-111 190l-110 -190l-147 86z" />
    <glyph glyph-name="uni0308" unicode="&#x308;" horiz-adv-x="0" 
d="M-306 978q-32 32 -32 78q0 45 32 77t77 32t77 -32t32 -77q0 -46 -32 -78t-77 -32t-77 32zM-45 978q-32 32 -32 78q0 45 32 77t77 32t77 -32t32 -77q0 -46 -32 -78t-77 -32t-77 32z" />
    <glyph glyph-name="uni0307" unicode="&#x307;" horiz-adv-x="0" 
d="M-236 978q-32 32 -32 78q0 45 32 77t77 32t77 -32t32 -77q0 -46 -32 -78t-77 -32t-77 32z" />
    <glyph glyph-name="gravecomb" unicode="&#x300;" horiz-adv-x="0" 
d="M-43 1287l204 -242l-96 -95l-240 207z" />
    <glyph glyph-name="acutecomb" unicode="&#x301;" horiz-adv-x="0" 
d="M110 1279l133 -130l-240 -207l-96 95z" />
    <glyph glyph-name="uni030B" unicode="&#x30b;" horiz-adv-x="0" 
d="M-272 1283l133 -130l-240 -207l-96 95zM-6 1283l133 -130l-240 -207l-96 95z" />
    <glyph glyph-name="uni0302" unicode="&#x302;" horiz-adv-x="0" 
d="M-152 1223h109l189 -157l-110 -131l-133 111l-134 -111l-109 131z" />
    <glyph glyph-name="uni030C" unicode="&#x30c;" horiz-adv-x="0" 
d="M-35 1238l133 -111l134 111l109 -131l-188 -157h-109l-189 157z" />
    <glyph glyph-name="uni0306" unicode="&#x306;" horiz-adv-x="0" 
d="M-323 971q-60 35 -95 95t-35 131h171q0 -37 26 -63.5t64 -26.5q37 0 63.5 26.5t26.5 63.5h171q0 -71 -35 -131t-95 -95t-131 -35t-131 35z" />
    <glyph glyph-name="uni030A" unicode="&#x30a;" horiz-adv-x="0" 
d="M-296.5 913q-37.5 22 -59.5 60t-22 83q0 44 22 82t59.5 60t82.5 22q44 0 82 -22t60 -60t22 -82q0 -45 -22 -83t-60 -60t-82 -22q-45 0 -82.5 22zM-181.5 1023.5q13.5 13.5 13.5 32.5t-13.5 32.5t-32.5 13.5t-32.5 -13.5t-13.5 -32.5t13.5 -32.5t32.5 -13.5t32.5 13.5z
" />
    <glyph glyph-name="tildecomb" unicode="&#x303;" horiz-adv-x="0" 
d="M-69 181.5q-40 18.5 -74 53.5q-21 23 -35 18q-7 -2 -14 -14t-10 -31l-170 24q10 65 46 115q38 50 97 69q27 9 56 9q42 0 82 -18.5t73 -54.5q9 -10 18.5 -14.5t15.5 -2.5q7 2 14 14t10 32l169 -23q-9 -69 -45 -115q-39 -53 -96 -71q-27 -9 -56 -9q-41 0 -81 18.5z" />
    <glyph glyph-name="uni0304" unicode="&#x304;" horiz-adv-x="0" 
d="M217 1073v-118h-341v118h341z" />
    <glyph glyph-name="uni0312" unicode="&#x312;" horiz-adv-x="0" 
d="M-232.5 559.5q-30.5 28.5 -34.5 70.5q-2 9 -2 27q0 91 97 223h118q-64 -74 -93 -132q41 -4 69 -35t28 -73q0 -45 -31.5 -77t-77.5 -32q-43 0 -73.5 28.5z" />
    <glyph glyph-name="uni0326" unicode="&#x326;" horiz-adv-x="0" 
d="M-183 -7l133 -130l-240 -207l-96 95z" />
    <glyph glyph-name="uni0327" unicode="&#x327;" horiz-adv-x="0" 
d="M-219.5 -225q29.5 13 29.5 41q0 22 -22 35.5t-79 20.5l66 139h114l-40 -95q51 -12 76 -35.5t25 -63.5q0 -128 -262 -137l-14 78q77 4 106.5 17z" />
    <glyph glyph-name="uni0328" unicode="&#x328;" horiz-adv-x="0" 
d="M-312 -270q-42 34 -42 98q0 55 32.5 100.5t71.5 71.5h109q-40 -32 -61 -63.5t-21 -64.5q0 -30 20 -45.5t46 -15.5q21 0 38.5 5.5t27.5 13.5l41 -87q-26 -21 -68.5 -34t-85.5 -13q-66 0 -108 34z" />
    <glyph glyph-name="uni0335" unicode="&#x335;" horiz-adv-x="0" 
d="M-50 525v-171h-527v171h527z" />
    <glyph glyph-name="uni0336" unicode="&#x336;" horiz-adv-x="0" 
d="M-50 525v-171h-527v171h527z" />
    <glyph glyph-name="uni0337" unicode="&#x337;" horiz-adv-x="0" 
d="M-210 980l160 -59l-424 -1155l-161 59z" />
    <glyph glyph-name="uni0338" unicode="&#x338;" horiz-adv-x="0" 
d="M-210 980l160 -59l-424 -1155l-161 59z" />
    </font>
</defs>
</svg>
